2 сезон

iTunes

1 сезон

1

iTunes

iTunes

iTunes

1 сезон

RePack

30

ИГРА 18+

pack

ВАЖНО

!!Акция!!

Alien_RageХит недели

RePack

MK11
pack

Забери бонус

RePack

jed

!!Акция!!

Alien_Rage

RePack

fifa19

RePack

Assassins Creed: Odyssey

RePack

NEED FOR SPEED™ PAYBACK

4 сезон

9 сезон

Бесстыжие 9 сезон

Все сериалы

все сериалы на PB.wtf

RePack

FAR CRY 5
  

Волшебник / Сезон: 1 / Серии: 1-8 из 8 (Михаил Хлебородов) [2019, Детектив, комедия, SATRip] pb.wtf

Волшебник через торрент pb.wtf

Размер: 4.69 GB | Добавлен: 1 год 2 мес. назад | Торрент скачан:78 раз
Скачать  

26-08-2019 12:45 Волшебник Скачать торрент  

Волшебник
Год выпуска: 2019
Страна: Россия
Жанр: Детектив, комедия
Продолжительность: ~ 00:52:00
Субтитры: отсутствуют

Режиссер: Михаил Хлебородов



В ролях: Юрий Чурсин, Анна Старшенбаум, Дмитрий Хрусталёв, Александр Голубков, Юлианна Караулова, Дмитрий Ефремов, Наталья Земцова, Вера Шпак, Виктор Цекало, Александр Ефимов, Даниил Эйдлин, Дарья Сивова, Аполлинария Муравьёва, Александра Богданова

Описание: Двоих парней, Андрея Гончарова и Лешу Дятлова, связывает многолетняя мужская дружба. Они размышляли на тему будущего и придумывали различные способы, как стать богатыми и знаменитыми. Годы шли, и теперь подростки стали взрослыми мужчинами. Они сумели придумать прибыльное дело, чем сейчас и занимаются.

Качество: SATRip
Формат: AVI

Видео: XviD, ~ 1500 Кбит/с, 720x400
Аудио: MP3, 2 ch, 192 Кбит/с
скриншот  скриншот  скриншот  скриншот  скриншот  

Общее
Полное имя : C:\Volshebnik.2019.XviD.SATRip.25Kuzmich\Volshebnik.e01.XviD.SATRip.25Kuzmich.avi
Формат : AVI
Формат/Информация : Audio Video Interleave
Размер файла : 600 Мбайт
Продолжительность : 51 м. 49 с.
Общий поток : 1620 Кбит/сек
Программа кодирования : VirtualDubMod 1.5.10.3 | www.virtualdub-fr.org || (build 2550/release)
Библиотека кодирования : VirtualDubMod build 2550/release

Видео
Идентификатор : 0
Формат : MPEG-4 Visual
Профиль формата : Advanced Simple@L5
Настройки формата : BVOP1
Параметр BVOP формата : 1
Параметр QPel формата : Нет
Параметр GMC формата : Без точки перехода
Параметр матрицы формата : Default (MPEG)
Идентификатор кодека : XVID
Идентификатор кодека/Подсказка : XviD
Продолжительность : 51 м. 49 с.
Битрейт : 1418 Кбит/сек
Ширина : 720 пикселей
Высота : 400 пикселей
Соотношение сторон : 16:9
Частота кадров : 25,000 кадров/сек
Цветовое пространство : YUV
Субдискретизация насыщенности : 4:2:0
Битовая глубина : 8 бит
Тип развёртки : Прогрессивная
Метод сжатия : С потерями
Бит/(Пиксели*Кадры) : 0.197
Размер потока : 526 Мбайт (88%)
Библиотека кодирования : XviD 73

Аудио
Идентификатор : 1
Формат : MPEG Audio
Версия формата : Version 1
Профиль формата : Layer 3
Настройки формата : Joint stereo / MS Stereo
Идентификатор кодека : 55
Идентификатор кодека/Подсказка : MP3
Продолжительность : 51 м. 49 с.
Вид битрейта : Постоянный
Битрейт : 192 Кбит/сек
Каналы : 2 канала
Частота : 48,0 КГц
Частота кадров : 41,667 кадра/сек (1152 SPF)
Метод сжатия : С потерями
Размер потока : 71,2 Мбайт (12%)
Выравнивание : Соединение по промежуткам
Продолжительность промежутка : 40 мс. (1,00 видеокадр)
Время предзагрузки промежутка : 504 мс.
Библиотека кодирования : LAME3.99r
Настройки программы : -m j -V 4 -q 2 -lowpass 18.6 -b 192

Внимание! Раздача ведётся путём добавления новых серий; при каждом добавлении создfётся новый торрент. Чтобы начать докачку новой серии, пользователям необходимо сделать следующее: (1) остановить скачивание, (2) удалить старый торрент у себя из клиента (старые серии удалять не надо), (3) скачать новый торрент и запустить его у себя в клиенте вместо старого, при этом указать клиенту путь в старую папку куда и должно происходить скачивание новых серий.

Ваш клиент при этом должен произвести хеширование (проверку) старой папки (если не производит сам - помогите ему сделать это), и будет докачивать только те серии которых у вас ещё нет. Старые серии при этом не удаляются, а продолжают раздаваться!

Eсли вы уже удалили старые серии, то предотвратить повторную закачку старых серий можно, отжав галочку в соответсвующих местах при запуске нового торрента.
pb.wtf



Скачать Волшебник через торрент https://img15.lostpic.net/2019/08/26/c89444e0078344b041d24196f5b26c43.jpg Скачать фильм Волшебник через торрент бесплантно в хорошем качестве Описание: Двоих парней, Андрея Гончарова и Лешу Дятлова, связывает многолетняя мужская дружба. Они размышляли на тему будущего и ... 10 10 12
Торрент: Зарегистрирован [2019-08-29 20:51] · скачан: 78 раз
Статус: √ проверено
Размер: 4.69 GB
Как cкачать? Как скачать Волшебник через торрент | qTorrent

% Раздел Тема Автор DL S | L
Наши сериалы [ 11.73 GB ] Волшебник / Сезон: 1 / Серии: 1-8 из 8 [2019 HDTVRip 720p] bober100 Скачать
1 | 0
Наши сериалы [ 6.14 GB ] Волшебник / Сезон: 1 / Серии: 1-8 из 8 [2019 HDTVRip-AVC] bober100 Скачать
1 | 0
Наши сериалы [ 5.04 GB ] Волшебник / Сезон: 1 / Серии: 1-8 из 8 [2019 HDTVRip] bober100 Скачать
1 | 0
Наши сериалы [ 16.58 GB ] Волшебник / Сезон: 1 / Серии: 1-8 из 8 [2019 HDTV 1080i] bober100 Скачать
1 | 0

28-11-2019 20:33  

Отключить всю рекламу на сайте

    Дорогой пользователь! Огромная просьба, поблагодарите релизера, оцените раздачу и оставьте свои комментарий, если Вы скачали Волшебник через торрент бесплатно! Внесите свою лепту в развитие PiratBit!
    Комментировать посты могут только пользователи прошедшие не сложную регистрацию
    Показать сообщения:    

    Волшебник через торрент
    Скачать бесплатно Волшебник
    Волшебник скачать торрент
    Волшебник смотреть онлайн
    Cкачать фильм Волшебник бесплатно
    Волшебник скачать торрент в хорошем качестве
    Волшебник смотреть онлайн бесплатно в хорошем качестве


    Вы не можете начинать темы
    Вы не можете отвечать на сообщения
    Вы не можете редактировать свои сообщения
    Вы не можете удалять свои сообщения
    Вы не можете голосовать в опросах
    Вы не можете прикреплять файлы к сообщениям
    Вы можете скачивать файлы