Ссылка на приватное зеркало нашего сайта всего за 1$. Внимание количество ограничено!!!

2 сезон

iTunes

1 сезон

1

iTunes

iTunes

iTunes

1 сезон

RePack

30

ИГРА 18+

pack

ВАЖНО

!!Акция!!

Alien_RageХит недели

RePack

MK11
pack

Забери бонус

RePack

jed

!!Акция!!

Alien_Rage

RePack

fifa19

RePack

Assassins Creed: Odyssey

RePack

NEED FOR SPEED™ PAYBACK

4 сезон

9 сезон

Бесстыжие 9 сезон

Все сериалы

все сериалы на PB.wtf

RePack

FAR CRY 5
  

Завтра будет Завтра / Серии: 1-4 (1-14) из 4 (14) (Алена Демьяненко, Виталий Тименко) [2003, Детектив, DVB] pb.wtf

Завтра будет Завтра через торрент pb.wtf

Размер: 14.4 GB | Добавлен: 1 год 2 мес. назад | Торрент скачан:0 раз
Скачать  

26-08-2019 12:47 Завтра будет Завтра Скачать торрент  

Завтра будет Завтра Год выпуска: 2003
Производство: Россия, Украина
Жанр: детектив
Примерная продолжительность серий: 01:45:00 - 02:00:45
Перевод: не тебуется

Режиссёр: Алена Демьяненко, Виталий Тименко

В ролях: Ирина Рахманова, Екатерина Корнейчук, Денис Ясик, Богдан Ступка, Александр Белявский, Марк Рудинштейн, Татьяна Назарова (II), Алексей Серебряков, Роман Лавров, Денис Роднянский, Ада Роговцева, Ерванд (Эрик) Арзуманян, Константин Степанков, Тамара Яценко, Богдан Бенюк, Олег Панюта, Лидия Оболенская, Нина Ильина, Сергей Романюк, Олег Роенко, Екатерина Кистень, Илья Клименко, Елена Бондарева-Репина, Снежана Егорова, Александр Чубов, Владимир Горянский

Описание: В простую 19-летнюю девушку, выросшую в детдоме, влюбляется молодой парень – сын известного олигарха. Он влюбляется так сильно и самозабвенно, что готов жениться на сироте. Однако ничего хорошего из этого романа не выходит. Родители, особенно отец-олигарх, не просто недовольны дерзким выбором любимого сыночка, но и готовы любыми средствами расстроить свадьбу, конечно, без ущерба для избалованного отпрыска. Будучи людьми искушенными в интригах и не желая портить с ним отношения, они никак не проявляют своего недовольства, организовывая тем временем за спиною у счастливой парочки нехитрую махинацию, в результате которой неугодная невеста оказывается в тюрьме. Жених пугается такого поворота событий и отказывается и от любви, и от свадьбы, и от девушки. Нет худа без добра – в тюрьме героиня знакомится с молодой женщиной, которая помогает ей выжить в экстремальных условиях тюрьмы и становится ее наставницей. Когда они оказываются на свободе, к ним присоединяется молодой обаятельный авантюрист. Троица превращается в крутую банду, придумывает хитроумный план мести и вполне успешно его воплощает. В конечном счете торжествует справедливость.



Качество: DVB
Формат: MPEG-PS
Видео кодек: MPEG2
Аудио кодек: MP1
Видео: MPEG2, 720x576, 25 FPS, 4599 kbps, 0.444 bit/pixel
Аудио: MP1, 48 kHz, 2 ch, 256 kbps

Цитата:

Рип от канала 1+1 включает в себя всего 4 серии, в отличие от 14 серий в рипах с телеканала СТС-Москва. Порядок серий в этой раздаче относительно серий с телеканала СТС таков:
1 серия - 1-3 серии
2 серия - 3-8 серии
3 серия - 8-12 серии
4 серия - 12-14 серии

Общее
Полное имя : D:\Zavtra.budet.Zavtra_[1+1]\ZavtraBudetZavtra[1+1].1.DVB.mpg
Формат : MPEG-PS
Размер файла : 3,63 Гбайт
Продолжительность : 1 ч. 45 м.
Режим общего битрейта : Переменный
Общий поток : 4952 Кбит/сек

Видео
Идентификатор : 224 (0xE0)
Формат : MPEG Video
Версия формата : Version 2
Профиль формата : Main@Main
Параметр BVOP формата : Да
Параметр матрицы формата : Выборочная
Параметр GOP формата : Variable
Структура изображения : Frame
Продолжительность : 1 ч. 45 м.
Вид битрейта : Переменный
Битрейт : 4636 Кбит/сек
Ширина : 720 пикселей
Высота : 576 пикселей
Соотношение сторон : 4:3
Частота кадров : 25,000 кадров/сек
Стандарт вещания : PAL
Цветовое пространство : YUV
Субдискретизация насыщенности : 4:2:0
Битовая глубина : 8 бит
Тип развёртки : Чересстрочная
Порядок развёртки : Верхнее поле первое
Метод сжатия : С потерями
Бит/(Пиксели*Кадры) : 0.447
Временной код первого кадра : 00:00:00:00
Оригинал временного кода : Group of pictures header
GOP, открыто/закрыто : Открыто
Размер потока : 3,37 Гбайт (93%)

Аудио
Идентификатор : 192 (0xC0)
Формат : MPEG Audio
Версия формата : Version 1
Профиль формата : Layer 2
Продолжительность : 1 ч. 45 м.
Вид битрейта : Постоянный
Битрейт : 256 Кбит/сек
Каналы : 2 канала
Частота : 48,0 КГц
Метод сжатия : С потерями
Задержка видео : -40 мс.
Размер потока : 192 Мбайт (5%)

Общее
Полное имя : D:\Zavtra.budet.Zavtra_[1+1]\ZavtraBudetZavtra[1+1].2.DVB.mpg
Формат : MPEG-PS
Размер файла : 3,62 Гбайт
Продолжительность : 1 ч. 44 м.
Режим общего битрейта : Переменный
Общий поток : 4952 Кбит/сек

Видео
Идентификатор : 224 (0xE0)
Формат : MPEG Video
Версия формата : Version 2
Профиль формата : Main@Main
Параметр BVOP формата : Да
Параметр матрицы формата : Выборочная
Параметр GOP формата : Variable
Структура изображения : Frame
Продолжительность : 1 ч. 44 м.
Вид битрейта : Переменный
Битрейт : 4636 Кбит/сек
Ширина : 720 пикселей
Высота : 576 пикселей
Соотношение сторон : 4:3
Частота кадров : 25,000 кадров/сек
Стандарт вещания : PAL
Цветовое пространство : YUV
Субдискретизация насыщенности : 4:2:0
Битовая глубина : 8 бит
Тип развёртки : Чересстрочная
Порядок развёртки : Верхнее поле первое
Метод сжатия : С потерями
Бит/(Пиксели*Кадры) : 0.447
Временной код первого кадра : 00:00:00:00
Оригинал временного кода : Group of pictures header
GOP, открыто/закрыто : Открыто
Размер потока : 3,36 Гбайт (93%)

Аудио
Идентификатор : 192 (0xC0)
Формат : MPEG Audio
Версия формата : Version 1
Профиль формата : Layer 2
Продолжительность : 1 ч. 44 м.
Вид битрейта : Постоянный
Битрейт : 256 Кбит/сек
Каналы : 2 канала
Частота : 48,0 КГц
Метод сжатия : С потерями
Размер потока : 192 Мбайт (5%)

Общее
Полное имя : D:\Zavtra.budet.Zavtra_[1+1]\ZavtraBudetZavtra[1+1].3.DVB.mpg
Формат : MPEG-PS
Размер файла : 3,66 Гбайт
Продолжительность : 1 ч. 45 м.
Режим общего битрейта : Переменный
Общий поток : 4953 Кбит/сек

Видео
Идентификатор : 224 (0xE0)
Формат : MPEG Video
Версия формата : Version 2
Профиль формата : Main@Main
Параметр BVOP формата : Да
Параметр матрицы формата : Выборочная
Параметр GOP формата : Variable
Структура изображения : Frame
Продолжительность : 1 ч. 45 м.
Вид битрейта : Переменный
Битрейт : 4636 Кбит/сек
Ширина : 720 пикселей
Высота : 576 пикселей
Соотношение сторон : 4:3
Частота кадров : 25,000 кадров/сек
Стандарт вещания : PAL
Цветовое пространство : YUV
Субдискретизация насыщенности : 4:2:0
Битовая глубина : 8 бит
Тип развёртки : Чересстрочная
Порядок развёртки : Верхнее поле первое
Метод сжатия : С потерями
Бит/(Пиксели*Кадры) : 0.447
Временной код первого кадра : 00:00:00:00
Оригинал временного кода : Group of pictures header
GOP, открыто/закрыто : Открыто
Размер потока : 3,40 Гбайт (93%)

Аудио
Идентификатор : 192 (0xC0)
Формат : MPEG Audio
Версия формата : Version 1
Профиль формата : Layer 2
Продолжительность : 1 ч. 45 м.
Вид битрейта : Постоянный
Битрейт : 256 Кбит/сек
Каналы : 2 канала
Частота : 48,0 КГц
Метод сжатия : С потерями
Задержка видео : -40 мс.
Размер потока : 194 Мбайт (5%)

Общее
Полное имя : D:\Zavtra.budet.Zavtra_[1+1]\ZavtraBudetZavtra[1+1].4.DVB.mpg
Формат : MPEG-PS
Размер файла : 3,49 Гбайт
Продолжительность : 1 ч. 40 м.
Режим общего битрейта : Переменный
Общий поток : 4952 Кбит/сек

Видео
Идентификатор : 224 (0xE0)
Формат : MPEG Video
Версия формата : Version 2
Профиль формата : Main@Main
Параметр BVOP формата : Да
Параметр матрицы формата : Выборочная
Параметр GOP формата : Variable
Структура изображения : Frame
Продолжительность : 1 ч. 40 м.
Вид битрейта : Переменный
Битрейт : 4636 Кбит/сек
Ширина : 720 пикселей
Высота : 576 пикселей
Соотношение сторон : 4:3
Частота кадров : 25,000 кадров/сек
Стандарт вещания : PAL
Цветовое пространство : YUV
Субдискретизация насыщенности : 4:2:0
Битовая глубина : 8 бит
Тип развёртки : Чересстрочная
Порядок развёртки : Верхнее поле первое
Метод сжатия : С потерями
Бит/(Пиксели*Кадры) : 0.447
Временной код первого кадра : 00:00:00:00
Оригинал временного кода : Group of pictures header
GOP, открыто/закрыто : Открыто
Размер потока : 3,24 Гбайт (93%)

Аудио
Идентификатор : 192 (0xC0)
Формат : MPEG Audio
Версия формата : Version 1
Профиль формата : Layer 2
Продолжительность : 1 ч. 40 м.
Вид битрейта : Постоянный
Битрейт : 256 Кбит/сек
Каналы : 2 канала
Частота : 48,0 КГц
Метод сжатия : С потерями
Задержка видео : -40 мс.
Размер потока : 185 Мбайт (5%)
скриншот  скриншот  скриншот  
pb.wtf



Скачать Завтра будет Завтра через торрент http://i042.radikal.ru/1610/5d/c6cd7c97af19.png Скачать фильм Завтра будет Завтра через торрент бесплантно в хорошем качестве Описание: В простую 19-летнюю девушку, выросшую в детдоме, влюбляется молодой парень – сын известного олигарха. Он влюбляется так сильно и ... 10 10 1
Торрент: Зарегистрирован [2019-08-26 12:47] · скачан: 0 раз
Статус: √ проверено
Размер: 14.4 GB
Как cкачать? Как скачать Завтра будет Завтра через торрент | qTorrent

28-11-2019 20:33  

Отключить всю рекламу на сайте

    Дорогой пользователь! Огромная просьба, поблагодарите релизера, оцените раздачу и оставьте свои комментарий, если Вы скачали Завтра будет Завтра через торрент бесплатно! Внесите свою лепту в развитие PiratBit!
    Комментировать посты могут только пользователи прошедшие не сложную регистрацию
    Показать сообщения:    

    Завтра будет Завтра через торрент
    Скачать бесплатно Завтра будет Завтра
    Завтра будет Завтра скачать торрент
    Завтра будет Завтра смотреть онлайн
    Cкачать фильм Завтра будет Завтра бесплатно
    Завтра будет Завтра скачать торрент в хорошем качестве
    Завтра будет Завтра смотреть онлайн бесплатно в хорошем качестве


    Вы не можете начинать темы
    Вы не можете отвечать на сообщения
    Вы не можете редактировать свои сообщения
    Вы не можете удалять свои сообщения
    Вы не можете голосовать в опросах
    Вы не можете прикреплять файлы к сообщениям
    Вы можете скачивать файлы