новый адрес пиратбит piratbit
Мега распродажа FORZA HORIZON 4 ULTIMATE+ВСЕ DLC+ОНЛАЙН всего за 499р. 349 руб. (супер цена). Внимание количество ограничено!!!

iTunes

1+1

iTunes

мы

iTunes

1

iTunes

Чернобыль

iTunes

Ральф против интернета

Лицензия

ПШазам

Лицензия

Игра престолов

Лицензия

30
pack

ВАЖНО

!!Акция!!

Alien_RageХит недели

RePack

Resident Evil 21

ИГРА 18+

pack

RePack

Metro:Exodus

!!Акция!!

Alien_Rage

RePack

fifa19

RePack

Assassins Creed: Odyssey

RePack

NEED FOR SPEED™ PAYBACK

3 сезон

9 сезон

Бесстыжие 9 сезон

Все сериалы

все сериалы на PB.wtf

RePack

FAR CRY 5
Ребята, катастрофически не хватает 1900р. для оплаты серверов за Октябрь (всвязи с блокировками трафик упал в 3 раза), 1-2р., выручайте.
  

Рокетмен / Rocketman (Декстер Флетчер) [2019, Мюзикл, драма, биография, музыка, UHD BDRemux 2160p] [Dolby Vision TV] DUB [Лицензия] pb.wtf

Рокетмен через торрент pb.wtf

Раздают: 1 [ 0 KB/s ]
Размер: 61.23 GB | Добавлен: 2 мес. 20 д. назад | Торрент скачан:18 раз
Скачать  

26-08-2019 13:06 Рокетмен Скачать торрент  

Рокетмен / Rocketman
Год выпуска: 2019
Страна: Великобритания США Канада
Жанр: Мюзикл, драма, биография, музыка
Продолжительность: 02:01:17
Перевод: Дублированный | Лицензия
Субтитры: Русские

Режиссер: Декстер Флетчер

rating

В ролях: Тэрон Эджертон, Джейми Белл, Ричард Мэдден, Брайс Даллас Ховард, Джемма Джонс, Стивен Макинтош, Том Беннетт, Мэтью Иллесли, Кит Коннор, Чарли Роу

Описание: История превращения застенчивого парня Реджинальда Дуайта, талантливейшего пианиста из маленького городка, в суперзвезду и культовую фигуру мировой поп-музыки Элтона Джона.

Качество: UHD BDRemux 2160p | HDR or Dolby Vision TV (2 Layers)
Формат: MP4

Видео: 3840x2160 at 23.976 fps, MPEG-H HEVC HDR Video, 62400 kbps avg
Аудио#1: 48 kHz, AC3, 5.1, 640 Kbps | Лицензия | RUS |
Аудио#2: 48 kHz, PCM, 7.1, 9216 Kbps | Оригинал | ENG |
скриншот  
Данный вид релизов (контейнер MP4) предназначен для встроенного в ТВ (соответственно, с поддержкой DV) плеер.
Т.Е. Можно использовать как USB flash/HDD, так и DLNA / Plex - подобные сервисы/программы. дополнительный-внешний плеер не обязателен.

Внимание!
На моделях LG 2016 возможны сюрпризы "через раз", 2017-2018 должно идти без сюрпризов )
скриншот  скриншот  скриншот  

скриншот  скриншот  скриншот  

General
Format : MPEG-4
Format profile : Base Media / Version 2
Codec ID : mp42 (isom/mp42/dby1)
File size : 61.2 GiB
Duration : 2 h 1 min
Overall bit rate mode : Variable
Overall bit rate : 72.3 Mb/s
Encoded date : UTC 2019-08-20 09:26:55
Tagged date : UTC 2019-08-20 09:26:55

Video
ID : 1
Format : HEVC
Format/Info : High Efficiency Video Coding
Format profile : Main 10@L5.1@High
Codec ID : dvhe
Duration : 2 h 1 min
Bit rate : 62.4 Mb/s
Maximum bit rate : 105 Mb/s
Width : 3 840 pixels
Height : 2 160 pixels
Display aspect ratio : 16:9
Frame rate mode : Constant
Frame rate : 23.976 (24000/1001) FPS
Color space : YUV
Chroma subsampling : 4:2:0 (Type 2)
Bit depth : 10 bits
Bits/(Pixel*Frame) : 0.314
Stream size : 52.9 GiB (86%)
Encoded date : UTC 2019-08-20 01:52:39
Tagged date : UTC 2019-08-20 10:51:26
Color range : Limited
Color primaries : BT.2020
Transfer characteristics : SMPTE ST 2084
Matrix coefficients : BT.2020 non-constant
Mastering display color primar : R: x=0.680000 y=0.320000, G: x=0.265000 y=0.690000, B: x=0.150000 y=0.060000, White point: x=0.312700 y=0.329000
Mastering display luminance : min: 0.0010 cd/m2, max: 1000.0000 cd/m2
Maximum Content Light Level : 1000 cd/m2
Maximum Frame-Average Light Le : 999 cd/m2

Audio #1
ID : 2
Format : AC-3
Format/Info : Audio Coding 3
Format settings, Endianness : Big
Codec ID : ac-3
Duration : 2 h 1 min
Bit rate mode : Constant
Bit rate : 640 kb/s
Maximum bit rate : 676 kb/s
Channel(s) : 6 channels
Channel positions : Front: L C R, Side: L R, LFE
Sampling rate : 48.0 kHz
Frame rate : 31.250 FPS (1536 SPF)
Bit depth : 16 bits
Compression mode : Lossy
Stream size : 555 MiB (1%)
Title : Russian (ac3 5.1)
Language : Russian
Service kind : Complete Main
Default : Yes
Alternate group : 1
Encoded date : UTC 2019-08-20 01:52:39
Tagged date : UTC 2019-08-20 10:51:26

Audio #2
ID : 3
Format : PCM
Format settings, Endianness : Big
Format settings, Sign : Signed
Codec ID : in24
Duration : 2 h 1 min
Bit rate mode : Constant
Bit rate : 9 216 kb/s
Channel(s) : 8 channels
Channel positions : Front: L C R, Side: L R, Rear: L R, LFE
Sampling rate : 48.0 kHz
Bit depth : 24 bits
Stream size : 7.81 GiB (13%)
Title : TrueHD
Language : English
Default : Yes
Alternate group : 1
Tagged date : UTC 2019-08-20 10:51:26

Text
ID : 4
Format : mp4s
Codec ID : E0
Duration : 2 h 1 min
Bit rate mode : Variable
Bit rate : 7 320 b/s
Maximum bit rate : 126 kb/s
Stream size : 6.35 MiB (0%)
Title : Russian
Language : Russian
Forced : No
Encoded date : UTC 2019-08-20 10:51:18
Tagged date : UTC 2019-08-20 10:51:26

pb.wtf



Скачать Рокетмен через торрент https://img16.lostpic.net/2019/08/19/1215fe8eea4c6becdb7f7dae8fb7ff02.jpg Скачать фильм Рокетмен через торрент бесплантно в хорошем качестве Описание: История превращения застенчивого парня Реджинальда Дуайта, талантливейшего пианиста из маленького городка, в суперзвезду и ... 10 10 2
Торрент: Зарегистрирован [2019-08-26 13:06] · скачан: 18 раз
Статус: √ проверено
Размер: 61.23 GB
Как cкачать? Как скачать Рокетмен через торрент | qTorrent

% Раздел Тема Автор DL S | L
Фильмы [HD 720p, 1080p] (Хороший звук DUB, MVO) [ 8.72 GB ] Рокетмен / Rocketman [2019 Мюзикл биография музыка BDRip 1080p] DUB [] bober100 Скачать
11 | 0
Фильмы (Blu-ray, BD-Remux, HDDVD) [ 44.98 GB ] Рокетмен / Rocketman [2019 Мюзикл биография музыка Blu-ray EUR 1080p] DUB [] bober100 Скачать
1 | 0
Фильмы [HD 720p, 1080p] (Хороший звук DUB, MVO) [ 4.89 GB ] Рокетмен / Rocketman [2019 Мюзикл биография музыка BDRip-HEVC 1080p ] DUB [] bober100 Скачать
7 | 0
Фильмы 2019 [DVDrip, WEB-DLRip, HDrip] (DUB, MVO) [ 2.18 GB ] Рокетмен / Rocketman [2019 мюзикл биография музыка BDRip] - [] Twi7ter Скачать
53 | 1
Фильмы 2019 [DVDrip, WEB-DLRip, HDrip] (DUB, MVO) [ 1.46 GB ] Рокетмен / Rocketman [2019 мюзикл биография музыка BDRip] - [] Twi7ter Скачать
68 | 3
Ultra HD (UHD: 2K, 4K, 8K) — видео сверхвысокой чёткости [ 22.62 GB ] Рокетмен / Rocketman [2019 Мюзикл биография музыка UHD BDRip 2160p] [SDR] DUB [] bober100 Скачать
2 | 0
Фильмы 2019 [DVDrip, WEB-DLRip, HDrip] (DUB, MVO) [ 2.41 GB ] Рокетмен / Rocketman [2019 Мюзикл биография музыка BDRip-AVC] DUB [] MVO - ExKinoRay Enigma2010 Скачать
40 | 2


>> Регистрируемся здесь <<






Отзывы и комментарии о схеме читаем и пишем здесь: ---> Отзывы и комментарии о схеме

Новые благодарочки в телеграм довольных пользователей:
скриншот   скриншот   скриншот   скриншот   скриншот
    Дорогой пользователь! Огромная просьба, поблагодарите релизера, оцените раздачу и оставьте свои комментарий, если Вы скачали Рокетмен через торрент бесплатно! Внесите свою лепту в развитие PiratBit!
    Комментировать посты могут только пользователи прошедшие не сложную регистрацию
    Показать сообщения:    

    Рокетмен через торрент
    Скачать бесплатно Рокетмен
    Рокетмен скачать торрент
    Рокетмен смотреть онлайн
    Cкачать фильм Рокетмен бесплатно
    Рокетмен скачать торрент в хорошем качестве
    Рокетмен смотреть онлайн бесплатно в хорошем качестве


    Вы не можете начинать темы
    Вы не можете отвечать на сообщения
    Вы не можете редактировать свои сообщения
    Вы не можете удалять свои сообщения
    Вы не можете голосовать в опросах
    Вы не можете прикреплять файлы к сообщениям
    Вы можете скачивать файлы