новый адрес
Ссылка на приватное зеркало всего за 1$. Внимание количество ограничено!!!

iTunes

1+1

iTunes

мы

WEB-DL

1

iTunes

Чернобыль

iTunes

Ральф против интернета

Лицензия

ПШазам

Лицензия

Оно 2

Лицензия

30
pack

Вам бонус

ВАЖНО

!!Акция!!

Alien_RageХит недели

RePack

Resident Evil 21

ИГРА 18+

pack

RePack

jed

!!Акция!!

Alien_Rage

RePack

fifa19

RePack

Assassins Creed: Odyssey

RePack

NEED FOR SPEED™ PAYBACK

3 сезон

9 сезон

Бесстыжие 9 сезон

Все сериалы

все сериалы на PB.wtf

RePack

FAR CRY 5
Ребята, катастрофически не хватает 1900р. для оплаты серверов за Октябрь (всвязи с блокировками трафик упал в 3 раза), 1-2р., выручайте.
  

Материнский инстинкт / Duelles (Оливье Массе-Депасс) [2018 г., триллер, драма, WEB-DLRip, Дубляж "iTunes"] pb.wtf

Материнский инстинкт через торрент pb.wtf

Размер: 712 MB | Добавлен: 3 мес. 12 д. назад | Торрент скачан:22 раза
Скачать  

26-08-2019 18:18 Материнский инстинкт Скачать торрент  

Материнский инстинкт / Duelles
Год выпуска: 2018
Страна: Франция, Бельгия / Versus Production, Haut et Court, Savage Film
Жанр: триллер, драма
Продолжительность: 01:37:06
Перевод: Дубляж (iTunes)

Режиссер: Оливье Массе-Депасс

rating

В ролях: Верле Батенс, Анн Косенс, Мехди Неббу, Арье Вортхальтер, Жюль Лефевр, Луан Адам

Описание: Элиз и Селин - лучшие подруги. Их семьи почти всё время проводят вместе, а сыновья растут как братья. Всё рушится, когда один из мальчиков погибает. Дружба сменяется обвинениями, а гармония - постоянным подозрением. Поведение Селин становится всё более странным, и невозможно предугадать, чем всё закончится.

Качество: WEB-DLRip
Формат: AVI
Видео кодек: DivX
Аудио кодек: MP3
Видео: 672x280 (2.40:1), 24.000 fps, DivX Codec 4.x ~883 kbps avg, 0.20 bit/pixel
Аудио: 48 kHz, MPEG Layer 3, 2 ch, ~128.00 kbps avg
скриншот   скриншот   скриншот   скриншот   скриншот   скриншот   скриншот   скриншот  

Общее
Полное имя : F:\ФИЛЬМЫ\Материнский инстинкт.2018.D.WEB-DLRip.avi
Формат : AVI
Формат/Информация : Audio Video Interleave
Размер файла : 712 Мбайт
Продолжительность : 1 ч. 37 м.
Режим общего битрейта : Переменный
Общий поток : 1025 Кбит/сек
Программа кодирования : VirtualDubMod 1.5.10.3 | www.virtualdub-fr.org || (build 2550/release)
Библиотека кодирования : VirtualDubMod build 2550/release

Видео
Идентификатор : 0
Формат : MPEG-4 Visual
Профиль формата : Advanced Simple@L5
Настройки формата : BVOP3 / GMC3 / QPel
Параметр BVOP формата : 3
Параметр QPel формата : Да
Параметр GMC формата : 3 точки перехода
Параметр матрицы формата : Default (MPEG)
Идентификатор кодека : DIVX
Идентификатор кодека/Информация : Project Mayo
Идентификатор кодека/Подсказка : DivX 4
Продолжительность : 1 ч. 37 м.
Битрейт : 884 Кбит/сек
Ширина : 672 пикселя
Высота : 280 пикселей
Соотношение сторон : 2,40:1
Частота кадров : 24,000 кадра/сек
Цветовое пространство : YUV
Субдискретизация насыщенности : 4:2:0
Битовая глубина : 8 бит
Тип развёртки : Прогрессивная
Метод сжатия : С потерями
Бит/(Пиксели*Кадры) : 0.196
Размер потока : 614 Мбайт (86%)
Библиотека кодирования : XviD 1.2.1 (UTC 2008-12-04)

Аудио
Идентификатор : 1
Формат : MPEG Audio
Версия формата : Version 1
Профиль формата : Layer 3
Настройки формата : Joint stereo / MS Stereo
Идентификатор кодека : 55
Идентификатор кодека/Подсказка : MP3
Продолжительность : 1 ч. 37 м.
Вид битрейта : Переменный
Битрейт : 128 Кбит/сек
Каналы : 2 канала
Частота : 48,0 КГц
Метод сжатия : С потерями
Размер потока : 88,9 Мбайт (12%)
Выравнивание : Соединение по промежуткам
Продолжительность промежутка : 24 мс. (0,58 видеокадр)
Время предзагрузки промежутка : 486 мс.
Библиотека кодирования : LAME3.99r
Настройки программы : -m j -V 4 -q 2 -lowpass 17 -b 128

pb.wtf



Скачать Материнский инстинкт через торрент http://pic1.kartinco.top/images/12/azdw3.jpg Скачать фильм Материнский инстинкт через торрент бесплантно в хорошем качестве Описание: Элиз и Селин - лучшие подруги. Их семьи почти всё время проводят вместе, а сыновья растут как братья. Всё рушится, когда один из ... 5 10 1
Торрент: Зарегистрирован [2019-08-26 18:18] · скачан: 22 раз
Статус: √ проверено
Размер: 712 MB
Как cкачать? Как скачать Материнский инстинкт через торрент | qTorrent

% Раздел Тема Автор DL S | L
Фильмы 2018 [DVDrip, WEB-DLRip, HDrip] (DUB, MVO) [ 1.46 GB ] Материнский инстинкт / Duelles [2018 WEB-DLRip] bober100 Скачать
2 | 0
Фильмы (WEB-DL 720p, 1080p) [ 3.35 GB ] Материнский инстинкт / Duelles [2018 WEB-DL 1080p] bober100 Скачать
5 | 0

28-11-2019 20:33  

Отключить всю рекламу на сайте

    Дорогой пользователь! Огромная просьба, поблагодарите релизера, оцените раздачу и оставьте свои комментарий, если Вы скачали Материнский инстинкт через торрент бесплатно! Внесите свою лепту в развитие PiratBit!
    Комментировать посты могут только пользователи прошедшие не сложную регистрацию
    Показать сообщения:    

    Материнский инстинкт через торрент
    Скачать бесплатно Материнский инстинкт
    Материнский инстинкт скачать торрент
    Материнский инстинкт смотреть онлайн
    Cкачать фильм Материнский инстинкт бесплатно
    Материнский инстинкт скачать торрент в хорошем качестве
    Материнский инстинкт смотреть онлайн бесплатно в хорошем качестве


    Вы не можете начинать темы
    Вы не можете отвечать на сообщения
    Вы не можете редактировать свои сообщения
    Вы не можете удалять свои сообщения
    Вы не можете голосовать в опросах
    Вы не можете прикреплять файлы к сообщениям
    Вы можете скачивать файлы