Ссылка на приватное зеркало нашего сайта всего за 1$. Внимание количество ограничено!!!

2 сезон

iTunes

1 сезон

1

iTunes

iTunes

iTunes

1 сезон

RePack

30

ИГРА 18+

pack

ВАЖНО

!!Акция!!

Alien_RageХит недели

RePack

MK11
pack

Забери бонус

RePack

jed

!!Акция!!

Alien_Rage

RePack

fifa19

RePack

Assassins Creed: Odyssey

RePack

NEED FOR SPEED™ PAYBACK

4 сезон

9 сезон

Бесстыжие 9 сезон

Все сериалы

все сериалы на PB.wtf

RePack

FAR CRY 5
  

Волшебник / Сезон: 1 / Серии: 1-8 из 8 (Михаил Хлебородов) [2019, Детектив, комедия, HDTVRip] pb.wtf

Волшебник через торрент pb.wtf

Размер: 5.04 GB | Добавлен: 1 год 1 мес. назад | Торрент скачан:56 раз
Скачать  

26-08-2019 19:50 Волшебник Скачать торрент  

Волшебник
Год выпуска: 2019
Страна: Россия
Жанр: Детектив, комедия
Продолжительность: ~ 00:52:00
Субтитры: отсутствуют

Режиссер: Михаил Хлебородов



В ролях: Юрий Чурсин, Анна Старшенбаум, Дмитрий Хрусталёв, Александр Голубков, Юлианна Караулова, Дмитрий Ефремов, Наталья Земцова, Вера Шпак, Виктор Цекало, Александр Ефимов, Даниил Эйдлин, Дарья Сивова, Аполлинария Муравьёва, Александра Богданова

Описание: Двоих парней, Андрея Гончарова и Лешу Дятлова, связывает многолетняя мужская дружба. Они размышляли на тему будущего и придумывали различные способы, как стать богатыми и знаменитыми. Годы шли, и теперь подростки стали взрослыми мужчинами. Они сумели придумать прибыльное дело, чем сейчас и занимаются.

Качество: HDTVRip
Формат: AVI

Видео: 720x400 (1.80:1), 25 fps, XviD build 73 ~1600 kbps avg, 0.222 bit/pixel
Аудио: AC3 Dolby Digital, 48.0 kHz, 2/0 (L,R) ch, 192 kbps
скриншот  скриншот  скриншот  скриншот  скриншот  

General
Complete name : H:\fiiles x\Волшебник.2019.HDTVRip.Files-x\01. Волшебник.2019.HDTVRip.Files-x.avi
Format : AVI
Format/Info : Audio Video Interleave
File size : 592 MiB
Duration : 45mn 56s
Overall bit rate : 1 802 Kbps
Writing application : VirtualDubMod 1.5.10.3 | www.virtualdub-fr.org || (build 2550/release)
Writing library : VirtualDubMod build 2550/release

Video
ID : 0
Format : MPEG-4 Visual
Format profile : Advanced Simple@L5
Format settings, BVOP : 1
Format settings, QPel : No
Format settings, GMC : No warppoints
Format settings, Matrix : Custom
Codec ID : XVID
Codec ID/Hint : XviD
Duration : 45mn 56s
Bit rate : 1 600 Kbps
Width : 720 pixels
Height : 400 pixels
Display aspect ratio : 16:9
Frame rate : 25.000 fps
Color space : YUV
Chroma subsampling : 4:2:0
Bit depth : 8 bits
Scan type : Progressive
Compression mode : Lossy
Bits/(Pixel*Frame) : 0.222
Stream size : 526 MiB (89%)
Writing library : XviD 73

Audio
ID : 1
Format : AC-3
Format/Info : Audio Coding 3
Mode extension : CM (complete main)
Codec ID : 2000
Duration : 45mn 56s
Bit rate mode : Constant
Bit rate : 192 Kbps
Channel(s) : 2 channels
Channel positions : Front: L R
Sampling rate : 48.0 KHz
Bit depth : 16 bits
Compression mode : Lossy
Stream size : 63.1 MiB (11%)
Alignment : Split accross interleaves
Interleave, duration : 40 ms (1.00 video frame)
Interleave, preload duration : 500 ms

Внимание! Раздача ведётся путём добавления новых серий; при каждом добавлении создfётся новый торрент. Чтобы начать докачку новой серии, пользователям необходимо сделать следующее: (1) остановить скачивание, (2) удалить старый торрент у себя из клиента (старые серии удалять не надо), (3) скачать новый торрент и запустить его у себя в клиенте вместо старого, при этом указать клиенту путь в старую папку куда и должно происходить скачивание новых серий.

Ваш клиент при этом должен произвести хеширование (проверку) старой папки (если не производит сам - помогите ему сделать это), и будет докачивать только те серии которых у вас ещё нет. Старые серии при этом не удаляются, а продолжают раздаваться!

Eсли вы уже удалили старые серии, то предотвратить повторную закачку старых серий можно, отжав галочку в соответсвующих местах при запуске нового торрента.
pb.wtf



Скачать Волшебник через торрент https://i106.fastpic.ru/big/2019/0826/29/7d3aa212ab46a9d6254c7a1418f9ef29.jpg Скачать фильм Волшебник через торрент бесплантно в хорошем качестве Описание: Двоих парней, Андрея Гончарова и Лешу Дятлова, связывает многолетняя мужская дружба. Они размышляли на тему будущего и ... 10 10 3
Торрент: Зарегистрирован [2019-08-29 20:54] · скачан: 56 раз
Статус: √ проверено
Размер: 5.04 GB
Как cкачать? Как скачать Волшебник через торрент | qTorrent

% Раздел Тема Автор DL S | L
Наши сериалы [ 11.73 GB ] Волшебник / Сезон: 1 / Серии: 1-8 из 8 [2019 HDTVRip 720p] bober100 Скачать
1 | 0
Наши сериалы [ 6.14 GB ] Волшебник / Сезон: 1 / Серии: 1-8 из 8 [2019 HDTVRip-AVC] bober100 Скачать
1 | 0
Наши сериалы [ 16.58 GB ] Волшебник / Сезон: 1 / Серии: 1-8 из 8 [2019 HDTV 1080i] bober100 Скачать
1 | 0
Наши сериалы [ 4.69 GB ] Волшебник / Сезон: 1 / Серии: 1-8 из 8 [2019 SATRip] bober100 Скачать
1 | 0

28-11-2019 20:33  

Отключить всю рекламу на сайте

    Дорогой пользователь! Огромная просьба, поблагодарите релизера, оцените раздачу и оставьте свои комментарий, если Вы скачали Волшебник через торрент бесплатно! Внесите свою лепту в развитие PiratBit!
    Комментировать посты могут только пользователи прошедшие не сложную регистрацию
    Показать сообщения:    

    Волшебник через торрент
    Скачать бесплатно Волшебник
    Волшебник скачать торрент
    Волшебник смотреть онлайн
    Cкачать фильм Волшебник бесплатно
    Волшебник скачать торрент в хорошем качестве
    Волшебник смотреть онлайн бесплатно в хорошем качестве


    Вы не можете начинать темы
    Вы не можете отвечать на сообщения
    Вы не можете редактировать свои сообщения
    Вы не можете удалять свои сообщения
    Вы не можете голосовать в опросах
    Вы не можете прикреплять файлы к сообщениям
    Вы можете скачивать файлы