2 сезон

iTunes

1 сезон

1

iTunes

iTunes

iTunes

1 сезон

RePack

30

ИГРА 18+

pack

ВАЖНО

!!Акция!!

Alien_RageХит недели

RePack

MK11
pack

Забери бонус

RePack

jed

!!Акция!!

Alien_Rage

RePack

fifa19

RePack

Assassins Creed: Odyssey

RePack

NEED FOR SPEED™ PAYBACK

4 сезон

9 сезон

Бесстыжие 9 сезон

Все сериалы

все сериалы на PB.wtf

RePack

FAR CRY 5
  

Капитанша. Продолжение / Капітанша / Сезон: 2 / Серии: 1-16 из 16 (Владимир Янощук) [2019, Мелодрама, приключения, WEB-DLRip] pb.wtf

Капитанша. Продолжение через торрент pb.wtf

Размер: 10.41 GB | Добавлен: 1 год 1 мес. назад | Торрент скачан:17 раз
Скачать  

26-08-2019 20:23 Капитанша. Продолжение Скачать торрент  

Капитанша. Продолжение
Год выпуска: 2019
Страна: Украина
Жанр: Мелодрама, приключения
Продолжительность: ~ 00:45:00
Перевод: Не требуется
Субтитры: отсутствуют

Режиссер: Владимир Янощук



В ролях: Анна Михайловская, Александр Ратников, Анна Шепелева, Леонид Громов, Маргарита Шубина, Борис Хвошнянский, Николай Боклан, Анжелика Гирич, Виталий Салий, Сергей Малага, Людмила Кузьмина, Евгений Давиденко (II), Игорь Тихомиров, Олеся Чечельницкая, Александр Сречкович, Александр Попов (IV), Станислав Лесной

Описание: С тех пор, как прекрасная капитанша Александра нашла своё счастье, прошло два года. За это время произошли события, которые не только укрепили любовь между Александрой и Леонидом, но и заложили прочный фундамент на будущее — Александра поступила в мореходное училище, чтобы быть надежной опорой мужу, а Леонид готовится выкупить судно, чтобы стать его полноправным владельцем. Пара наслаждается семейным счастьем, планирует рождение второго ребёнка, не подоздевая, что судьба готовит им новые испытания: месть затаившихся врагов, опасные морские приключения, поиск сокровищ, и… разлуку, к которым приведет коварство недругов.

Качество: WEB-DLRip
Формат: AVI

Видео: 720x400 (1.80:1), 25 fps, XviD build 73 ~1600 kbps avg, 0.222 bit/pixel
Аудио: AC3 Dolby Digital, 48.0 kHz, 2/0 (L,R) ch, 192 kbps
скриншот   скриншот   скриншот   скриншот   скриншот   скриншот   скриншот  
скриншот  

General
Complete name : H:\fiiles x\Капитанша. Продолжение.2019.WEB-DLRip.Files-x\01. Капитанша. Продолжение.2019.WEB-DLRip.Files-x.avi
Format : AVI
Format/Info : Audio Video Interleave
File size : 656 MiB
Duration : 50mn 56s
Overall bit rate : 1 802 Kbps
Writing application : VirtualDubMod 1.5.10.3 | www.virtualdub-fr.org || (build 2550/release)
Writing library : VirtualDubMod build 2550/release

Video
ID : 0
Format : MPEG-4 Visual
Format profile : Advanced Simple@L5
Format settings, BVOP : 1
Format settings, QPel : No
Format settings, GMC : No warppoints
Format settings, Matrix : Custom
Codec ID : XVID
Codec ID/Hint : XviD
Duration : 50mn 56s
Bit rate : 1 600 Kbps
Width : 720 pixels
Height : 400 pixels
Display aspect ratio : 16:9
Frame rate : 25.000 fps
Color space : YUV
Chroma subsampling : 4:2:0
Bit depth : 8 bits
Scan type : Progressive
Compression mode : Lossy
Bits/(Pixel*Frame) : 0.222
Stream size : 583 MiB (89%)
Writing library : XviD 73

Audio
ID : 1
Format : AC-3
Format/Info : Audio Coding 3
Mode extension : CM (complete main)
Codec ID : 2000
Duration : 50mn 56s
Bit rate mode : Constant
Bit rate : 192 Kbps
Channel(s) : 2 channels
Channel positions : Front: L R
Sampling rate : 48.0 KHz
Bit depth : 16 bits
Compression mode : Lossy
Stream size : 69.9 MiB (11%)
Alignment : Split accross interleaves
Interleave, duration : 40 ms (1.00 video frame)
Interleave, preload duration : 500 ms

Внимание! Раздача ведётся путём добавления новых серий; при каждом добавлении создfётся новый торрент. Чтобы начать докачку новой серии, пользователям необходимо сделать следующее: (1) остановить скачивание, (2) удалить старый торрент у себя из клиента (старые серии удалять не надо), (3) скачать новый торрент и запустить его у себя в клиенте вместо старого, при этом указать клиенту путь в старую папку куда и должно происходить скачивание новых серий.

Ваш клиент при этом должен произвести хеширование (проверку) старой папки (если не производит сам - помогите ему сделать это), и будет докачивать только те серии которых у вас ещё нет. Старые серии при этом не удаляются, а продолжают раздаваться!

Eсли вы уже удалили старые серии, то предотвратить повторную закачку старых серий можно, отжав галочку в соответсвующих местах при запуске нового торрента.
pb.wtf



Скачать Капитанша. Продолжение через торрент https://i86.fastpic.ru/big/2019/0826/79/d786afdf49dc86de82213252cf970f79.jpg Скачать фильм Капитанша. Продолжение через торрент бесплантно в хорошем качестве Описание: С тех пор, как прекрасная капитанша Александра нашла своё счастье, прошло два года. За это время произошли события, которые не ... 10 10 3
Info! Золотая раздача, скачанное не засчитывается.
Торрент: Зарегистрирован [2019-09-07 00:28] · скачан: 17 раз
Статус: √ проверено
Размер: 10.41 GB
Как cкачать? Как скачать Капитанша. Продолжение через торрент | qTorrent

% Раздел Тема Автор DL S | L
Наши сериалы [ 23.74 GB ] Капитанша. Продолжение / Капітанша / Сезон: 2 / Серии: 1-16 из 16 [2019 Мело HDTVRip 720p] bober100 Скачать
1 | 0
Наши сериалы [ 10.36 GB ] Капитанша. Продолжение / Капітанша / Сезон: 2 / Серии: 1-16 из 16 [2019 Мело WEBRip-AVC] bober100 Скачать
1 | 0
Наши сериалы [ 9.38 GB ] Капитанша. Продолжение / Капітанша / Сезон: 2 / Серии: 1-16 из 16 [2019 Мело SATRip] bober100 Скачать
1 | 0
Наши сериалы [ 10.1 GB ] Капитанша. Продолжение / Сезон-2 / Серии: 1-16 из 16 [2019 SATRip-AVC] aleksan55 Скачать
1 | 0

28-11-2019 20:33  

Отключить всю рекламу на сайте

    Дорогой пользователь! Огромная просьба, поблагодарите релизера, оцените раздачу и оставьте свои комментарий, если Вы скачали Капитанша. Продолжение через торрент бесплатно! Внесите свою лепту в развитие PiratBit!
    Комментировать посты могут только пользователи прошедшие не сложную регистрацию
    Показать сообщения:    

    Капитанша. Продолжение через торрент
    Скачать бесплатно Капитанша. Продолжение
    Капитанша. Продолжение скачать торрент
    Капитанша. Продолжение смотреть онлайн
    Cкачать фильм Капитанша. Продолжение бесплатно
    Капитанша. Продолжение скачать торрент в хорошем качестве
    Капитанша. Продолжение смотреть онлайн бесплатно в хорошем качестве


    Вы не можете начинать темы
    Вы не можете отвечать на сообщения
    Вы не можете редактировать свои сообщения
    Вы не можете удалять свои сообщения
    Вы не можете голосовать в опросах
    Вы не можете прикреплять файлы к сообщениям
    Вы можете скачивать файлы