Ссылка на приватное зеркало нашего сайта всего за 1$. Внимание количество ограничено!!!

2 сезон

iTunes

1 сезон

1

iTunes

iTunes

iTunes

1 сезон

RePack

30

ИГРА 18+

pack

ВАЖНО

!!Акция!!

Alien_RageХит недели

RePack

MK11
pack

Забери бонус

RePack

jed

!!Акция!!

Alien_Rage

RePack

fifa19

RePack

Assassins Creed: Odyssey

RePack

NEED FOR SPEED™ PAYBACK

4 сезон

9 сезон

Бесстыжие 9 сезон

Все сериалы

все сериалы на PB.wtf

RePack

FAR CRY 5
  

Капитанша. Продолжение / Капітанша / Сезон: 2 / Серии: 1-16 из 16 (Владимир Янощук) [2019, Мелодрама, приключения, WEBRip-AVC] pb.wtf

Капитанша. Продолжение через торрент pb.wtf

Размер: 10.36 GB | Добавлен: 1 год 1 мес. назад | Торрент скачан:14 раз
Скачать  

26-08-2019 20:52 Капитанша. Продолжение Скачать торрент  

Капитанша. Продолжение
Год выпуска: 2019
Страна: Украина
Жанр: Мелодрама, приключения
Продолжительность: ~ 00:45:00
Перевод: Не требуется
Субтитры: отсутствуют

Режиссер: Владимир Янощук



В ролях: Анна Михайловская, Александр Ратников, Анна Шепелева, Леонид Громов, Маргарита Шубина, Борис Хвошнянский, Николай Боклан, Анжелика Гирич, Виталий Салий, Сергей Малага, Людмила Кузьмина, Евгений Давиденко (II), Игорь Тихомиров, Олеся Чечельницкая, Александр Сречкович, Александр Попов (IV), Станислав Лесной

Описание: С тех пор, как прекрасная капитанша Александра нашла своё счастье, прошло два года. За это время произошли события, которые не только укрепили любовь между Александрой и Леонидом, но и заложили прочный фундамент на будущее — Александра поступила в мореходное училище, чтобы быть надежной опорой мужу, а Леонид готовится выкупить судно, чтобы стать его полноправным владельцем. Пара наслаждается семейным счастьем, планирует рождение второго ребёнка, не подоздевая, что судьба готовит им новые испытания: месть затаившихся врагов, опасные морские приключения, поиск сокровищ, и… разлуку, к которым приведет коварство недругов.

Качество: WEBRip-AVC
Формат: MKV

Видео: 1024x576, (16:9), 25 fps, AVC MPEG-4 (x264), High@L4.1 ~ 1600 kbps , 0.109 bit/pixel
Аудио: 48 kHz, AC3, 2/0 (L,R) ch, ~192.00 kbps avg
скриншот  скриншот  скриншот  скриншот  

Общее
Уникальный идентификатор : 221939407136829970830240736719491041133 (0xA6F7F999E40AD13ABCED4AC2F720076D)
Полное имя : C:\Kapitansha.2.sezon.(2019).WEBRip.(AVC).Files-x\01.Капитанша.S02.(2019).WEBRip.(AVC).by.Серый1779.Files-x.mkv
Формат : Matroska
Версия формата : Version 2
Размер файла : 653 Мбайт
Продолжительность : 50 м. 56 с.
Общий поток : 1793 Кбит/сек
Дата кодирования : UTC 2019-08-26 20:31:47
Программа кодирования : mkvmerge v7.8.0 (''River Man'') 32bit built on Apr 3 2015 12:11:22
Библиотека кодирования : libebml v1.3.1 + libmatroska v1.4.2

Видео
Идентификатор : 1
Формат : AVC
Формат/Информация : Advanced Video Codec
Профиль формата : High@L4.1
Настройки формата : CABAC / 9 Ref Frames
Параметр CABAC формата : Да
Параметр RefFrames формата : 9 кадров
Идентификатор кодека : V_MPEG4/ISO/AVC
Продолжительность : 50 м. 56 с.
Битрейт : 1600 Кбит/сек
Ширина : 1024 пикселя
Высота : 576 пикселей
Соотношение сторон : 16:9
Режим частоты кадров : Постоянный
Частота кадров : 25,000 кадров/сек
Цветовое пространство : YUV
Субдискретизация насыщенности : 4:2:0
Битовая глубина : 8 бит
Тип развёртки : Прогрессивная
Бит/(Пиксели*Кадры) : 0.109
Размер потока : 570 Мбайт (87%)
Библиотека кодирования : x264 core 146 r2538 121396c
Настройки программы : cabac=1 / ref=9 / deblock=1:-2:-1 / analyse=0x3:0x133 / me=umh / subme=9 / psy=1 / psy_rd=1.00:0.15 / mixed_ref=1 / me_range=32 / chroma_me=1 / trellis=2 / 8x8dct=1 / cqm=0 / deadzone=21,11 / fast_pskip=0 / chroma_qp_offset=-3 / threads=18 / lookahead_threads=3 / sliced_threads=0 / nr=0 / decimate=1 / interlaced=0 / bluray_compat=0 / constrained_intra=0 / bframes=9 / b_pyramid=2 / b_adapt=2 / b_bias=0 / direct=1 / weightb=1 / open_gop=0 / weightp=2 / keyint=250 / keyint_min=25 / scenecut=40 / intra_refresh=0 / rc=2pass / mbtree=0 / bitrate=1600 / ratetol=1.0 / qcomp=0.60 / qpmin=0 / qpmax=69 / qpstep=4 / cplxblur=20.0 / qblur=0.5 / ip_ratio=1.40 / pb_ratio=1.30 / aq=2:1.00
Default : Да
Forced : Нет
Цветовой диапазон : Limited
Основные цвета : BT.709
Характеристики трансфера : BT.709
Коэффициенты матрицы : BT.709

Аудио
Идентификатор : 2
Формат : AC-3
Формат/Информация : Audio Coding 3
Коммерческое название : Dolby Digital
Идентификатор кодека : A_AC3
Продолжительность : 50 м. 56 с.
Вид битрейта : Постоянный
Битрейт : 192 Кбит/сек
Каналы : 2 канала
ChannelLayout : L R
Частота : 48,0 КГц
Частота кадров : 31,250 кадров/сек (1536 SPF)
Битовая глубина : 16 бит
Метод сжатия : С потерями
Размер потока : 69,9 Мбайт (11%)
ServiceKind/String : Complete Main
Default : Да
Forced : Нет

Внимание! Раздача ведётся путём добавления новых серий; при каждом добавлении создfётся новый торрент. Чтобы начать докачку новой серии, пользователям необходимо сделать следующее: (1) остановить скачивание, (2) удалить старый торрент у себя из клиента (старые серии удалять не надо), (3) скачать новый торрент и запустить его у себя в клиенте вместо старого, при этом указать клиенту путь в старую папку куда и должно происходить скачивание новых серий.

Ваш клиент при этом должен произвести хеширование (проверку) старой папки (если не производит сам - помогите ему сделать это), и будет докачивать только те серии которых у вас ещё нет. Старые серии при этом не удаляются, а продолжают раздаваться!

Eсли вы уже удалили старые серии, то предотвратить повторную закачку старых серий можно, отжав галочку в соответсвующих местах при запуске нового торрента.
pb.wtf



Скачать Капитанша. Продолжение через торрент https://i86.fastpic.ru/big/2019/0826/79/d786afdf49dc86de82213252cf970f79.jpg Скачать фильм Капитанша. Продолжение через торрент бесплантно в хорошем качестве Описание: С тех пор, как прекрасная капитанша Александра нашла своё счастье, прошло два года. За это время произошли события, которые не ... 10 10 2
Торрент: Зарегистрирован [2019-09-07 04:48] · скачан: 14 раз
Статус: √ проверено
Размер: 10.36 GB
Как cкачать? Как скачать Капитанша. Продолжение через торрент | qTorrent

% Раздел Тема Автор DL S | L
Наши сериалы [ 23.74 GB ] Капитанша. Продолжение / Капітанша / Сезон: 2 / Серии: 1-16 из 16 [2019 Мело HDTVRip 720p] bober100 Скачать
1 | 0
Наши сериалы [ 10.41 GB ] Капитанша. Продолжение / Капітанша / Сезон: 2 / Серии: 1-16 из 16 [2019 Мело WEB-DLRip] bober100 Скачать
1 | 0
Наши сериалы [ 9.38 GB ] Капитанша. Продолжение / Капітанша / Сезон: 2 / Серии: 1-16 из 16 [2019 Мело SATRip] bober100 Скачать
1 | 0
Наши сериалы [ 10.1 GB ] Капитанша. Продолжение / Сезон-2 / Серии: 1-16 из 16 [2019 SATRip-AVC] aleksan55 Скачать
1 | 0

28-11-2019 20:33  

Отключить всю рекламу на сайте

    Дорогой пользователь! Огромная просьба, поблагодарите релизера, оцените раздачу и оставьте свои комментарий, если Вы скачали Капитанша. Продолжение через торрент бесплатно! Внесите свою лепту в развитие PiratBit!
    Комментировать посты могут только пользователи прошедшие не сложную регистрацию
    Показать сообщения:    

    Капитанша. Продолжение через торрент
    Скачать бесплатно Капитанша. Продолжение
    Капитанша. Продолжение скачать торрент
    Капитанша. Продолжение смотреть онлайн
    Cкачать фильм Капитанша. Продолжение бесплатно
    Капитанша. Продолжение скачать торрент в хорошем качестве
    Капитанша. Продолжение смотреть онлайн бесплатно в хорошем качестве


    Вы не можете начинать темы
    Вы не можете отвечать на сообщения
    Вы не можете редактировать свои сообщения
    Вы не можете удалять свои сообщения
    Вы не можете голосовать в опросах
    Вы не можете прикреплять файлы к сообщениям
    Вы можете скачивать файлы