Ссылка на приватное зеркало нашего сайта всего за 1$. Внимание количество ограничено!!!

2 сезон

iTunes

1 сезон

1

2 сезон

2 сезон

iTunes

1 сезон

RePack

30

Новинка

ВАЖНО

ИГРА 18+

pack

RePack

MK11
pack

Забери бонус

RePack

jed

!!Акция!!

Alien_Rage

RePack

fifa19

RePack

Assassins Creed: Odyssey

RePack

NEED FOR SPEED™ PAYBACK

4 сезон

9 сезон

Бесстыжие 9 сезон

Все сериалы

все сериалы на PB.wtf

RePack

FAR CRY 5
  

Охотник за разумом / Mindhunter / Сезон: 2 / Серии: 1-9 из 9 (Дэвид Финчер, Эндрю Дуглас, Азиф Кападиа) [2019, триллер, драма, криминал, WEB-DL 1080p] MVO [Jaskier] pb.wtf

Охотник за разумом через торрент pb.wtf

Размер: 14.05 GB | Добавлен: 1 год 3 мес. назад | Торрент скачан:61 раз
Скачать  

26-08-2019 21:08 Охотник за разумом Скачать торрент  

Охотник за разумом / Mindhunter Год выпуска: 2019
Страна: США
Жанр: триллер, драма, криминал
Продолжительность: ~00:55:00
Перевод: Профессиональный (многоголосый закадровый) | Jaskier
Субтитры: отсутствуют

Режиссёр: Дэвид Финчер, Эндрю Дуглас, Азиф Кападиа

В ролях: Джонатан Грофф, Анна Торв, Сонни Валиченти, Холт МакКэллани, Коттер Смит, Сонни Валиченти, Ханна Гросс, Камерон Бриттон, Алекс Морф, Стэйси Рока, Джо Таттл

Описание: Молодой специальный агент ФБР Холден Форд (Джонатан Грофф) занимается переговорами с преступниками, захватившими заложников. После того как очередной разговор с убийцей закончился тем, что злоумышленник пустил себе пулю в голову, Форд приходит к выводу, что может на основе косвенных данных составить психологический портрет преступника и тем самым предугадать его последующие ходы. Агент пытается развить эту мысль, но не находит поддержки у руководства, ведь фактически он предлагает отслеживать потенциальных убийц и пресекать их деятельность ещё до совершения преступления. Зато поддержка обнаруживается в лице коллеги Билла Тенча (Холт МакКэллани), занимающегося бихевиоризмом, и университетского психолога доктора Карр (Анна Торв), исследующей поведение серийных убийц. Колеся по Америке с обучающей программой для полицейских, агенты проводят несколько любопытных интервью с содержащимися в тюрьмах преступниками и составляют психологические портреты, в которых пытаются найти закономерности, позволяющие затем останавливать потенциальных маньяков до совершения ими убийств.



Качество: WEB-DL 1080p
Формат: MKV

Видео: 1920x1080 (16:9) | X264 | ~3000 kbps | 23.976 fps
Аудио 1: AC3, 48,0 КГц, 6 ch, 384 kbps - [RUS]
Аудио 2: AC3, 48,0 КГц, 6 ch, 384 kbps - [ENG]


Реклама: отсутствует
Переведено и озвучено: студией Jaskier
Общее
Уникальный идентификатор                 : 170641096231363725593287123731188278159 (0x8060479A417396BCB942817400D3E38F)
Полное имя                               : G:\Загрузки\Mindhunter. Season 2 (WEB-DL l 1080p l Jaskier)\Mindhunter.S02E01.1080p.WEB-DL.DD5.1.H.264-Jaskier.mkv
Формат                                   : Matroska
Версия формата                           : Version 2
Размер файла                             : 1,22 Гбайт
Продолжительность                        : 48 м. 30 с.
Режим общего битрейта                    : Переменный
Общий поток                              : 3612 Кбит/сек
Дата кодирования                         : UTC 2019-08-25 17:04:23
Программа кодирования                    : mkvmerge v7.8.0 ('River Man') 32bit built on Apr  3 2015 12:11:22
Библиотека кодирования                   : libebml v1.3.1 + libmatroska v1.4.2

Видео
Идентификатор                            : 1
Формат                                   : AVC
Формат/Информация                        : Advanced Video Codec
Профиль формата                          : Main@L4
Настройки формата                        : CABAC / 3 Ref Frames
Параметр CABAC формата                   : Да
Параметр RefFrames формата               : 3 кадра
Идентификатор кодека                     : V_MPEG4/ISO/AVC
Продолжительность                        : 48 м. 30 с.
Вид битрейта                             : Переменный
Битрейт                                  : 2870 Кбит/сек
Максимальный битрейт                     : 4305 Кбит/сек
Ширина                                   : 1920 пикселей
Высота                                   : 1080 пикселей
Соотношение сторон                       : 16:9
Режим частоты кадров                     : Постоянный
Частота кадров                           : 23,976 (24000/1001) кадра/сек
Цветовое пространство                    : YUV
Субдискретизация насыщенности            : 4:2:0
Битовая глубина                          : 8 бит
Тип развёртки                            : Прогрессивная
Бит/(Пиксели*Кадры)                      : 0.058
Размер потока                            : 962 Мбайт (77%)
Библиотека кодирования                   : x264 core 148 r2715 7e75228
Настройки программы                      : cabac=1 / ref=3 / deblock=1:0:0 / analyse=0x1:0x111 / me=umh / subme=10 / psy=1 / psy_rd=1.00:0.00 / mixed_ref=1 / me_range=24 / chroma_me=1 / trellis=2 / 8x8dct=0 / cqm=0 / deadzone=21,11 / fast_pskip=1 / chroma_qp_offset=-2 / threads=6 / lookahead_threads=1 / sliced_threads=0 / nr=0 / decimate=1 / interlaced=0 / bluray_compat=0 / stitchable=1 / constrained_intra=0 / bframes=2 / b_pyramid=0 / b_adapt=2 / b_bias=0 / direct=3 / weightb=1 / open_gop=0 / weightp=2 / keyint=250 / keyint_min=23 / scenecut=0 / intra_refresh=0 / rc_lookahead=48 / rc=2pass / mbtree=1 / bitrate=2870 / ratetol=1.0 / qcomp=0.50 / qpmin=6 / qpmax=51 / qpstep=4 / cplxblur=20.0 / qblur=0.5 / vbv_maxrate=4305 / vbv_bufsize=5740 / nal_hrd=vbr / filler=0 / ip_ratio=1.40 / aq=1:1.00
Язык                                     : English
Default                                  : Да
Forced                                   : Нет

Аудио #1
Идентификатор                            : 2
Формат                                   : AC-3
Формат/Информация                        : Audio Coding 3
Коммерческое название                    : Dolby Digital
Идентификатор кодека                     : A_AC3
Продолжительность                        : 48 м. 30 с.
Вид битрейта                             : Постоянный
Битрейт                                  : 384 Кбит/сек
Каналы                                   : 6 каналов
Channel layout                           : L R C LFE Ls Rs
Частота                                  : 48,0 КГц
Частота кадров                           : 31,250 кадров/сек (1536 SPF)
Битовая глубина                          : 16 бит
Метод сжатия                             : С потерями
Размер потока                            : 133 Мбайт (11%)
Заголовок                                : Jaskier
Язык                                     : Russian
ServiceKind/String                       : Complete Main
Default                                  : Да
Forced                                   : Нет

Аудио #2
Идентификатор                            : 3
Формат                                   : AC-3
Формат/Информация                        : Audio Coding 3
Коммерческое название                    : Dolby Digital
Идентификатор кодека                     : A_AC3
Продолжительность                        : 48 м. 30 с.
Вид битрейта                             : Постоянный
Битрейт                                  : 384 Кбит/сек
Каналы                                   : 6 каналов
Channel layout                           : L R C LFE Ls Rs
Частота                                  : 48,0 КГц
Частота кадров                           : 31,250 кадров/сек (1536 SPF)
Битовая глубина                          : 16 бит
Метод сжатия                             : С потерями
Размер потока                            : 133 Мбайт (11%)
Язык                                     : English
ServiceKind/String                       : Complete Main
Default                                  : Нет
Forced                                   : Нет
скриншот  скриншот  скриншот  
pb.wtf



Скачать Охотник за разумом через торрент https://img15.lostpic.net/2019/08/25/803efc4b2bef85e0f37cf2ae2e638d43.jpg Скачать фильм Охотник за разумом через торрент бесплантно в хорошем качестве Описание: Молодой специальный агент ФБР Холден Форд (Джонатан Грофф) занимается переговорами с преступниками, захватившими заложников. ... 10 10 3
Торрент: Зарегистрирован [2019-08-26 21:08] · скачан: 61 раз
Статус: √ проверено
Размер: 14.05 GB
Как cкачать? Как скачать Охотник за разумом через торрент | qTorrent

% Раздел Тема Автор DL S | L
Зарубежные сериалы [ 59.41 GB ] Охотник за разумом / Mindhunter / Сезон: 2 / Серии: 1-9 из 9 [2019 UHD WEBRip 2160p] DUB [SDI Media] bober100 Скачать
1 | 0
Зарубежные сериалы [ 7.23 GB ] Охотник за разумом / Mindhunter / Сезон: 2 / Серии: 1-9 из 9 [2019 WEB-DLRip] MVO [LostFilm] bober100 Скачать
1 | 0
Зарубежные сериалы [ 8.96 GB ] Охотник за разумом / Mindhunter / Сезон: 2 / Серии: 1-9 из 9 [2019 WEB-DL 720p] killermax2013 Скачать
1 | 0
Зарубежные сериалы [ 6.53 GB ] Охотник за разумом / Mindhunter / Сезон: 2 / Серии: 1-9 из 9 [2019 WEB-DLRip] MVO [Jaskier] bober100 Скачать
1 | 0
Зарубежные сериалы [ 7.66 GB ] Охотник за разумом / Mindhunter / Сезон: 2 / Серии: 1-9 из 9 [2019 WEB-DL 720p] MVO bober100 Скачать
1 | 0
Фильмы без перевода [ 13.25 GB ] Охотник за разумом / Mindhunter / Сезон: 2 / Серии: 1- 9 из 9 [2019 WEB-DL 1080p] 2x[Sub] killermax2013 Скачать
1 | 0
Зарубежные сериалы [ 8.26 GB ] Охотник за разумом / Mindhunter / Сезон: 2 / Серии: 1-9 из 9 [2019 WEBRip 720p] MVO [LostFilm] bober100 Скачать
3 | 0

28-11-2019 20:33  

Отключить всю рекламу на сайте

16-09-2019 06:32 Охотник за разумом Скачать торрент  

первый сезон был стильно снят. Рука Финчера явно была заметна.pb.wtf



    Дорогой пользователь! Огромная просьба, поблагодарите релизера, оцените раздачу и оставьте свои комментарий, если Вы скачали Охотник за разумом через торрент бесплатно! Внесите свою лепту в развитие PiratBit!
    Комментировать посты могут только пользователи прошедшие не сложную регистрацию
    Показать сообщения:    

    Охотник за разумом через торрент
    Скачать бесплатно Охотник за разумом
    Охотник за разумом скачать торрент
    Охотник за разумом смотреть онлайн
    Cкачать фильм Охотник за разумом бесплатно
    Охотник за разумом скачать торрент в хорошем качестве
    Охотник за разумом смотреть онлайн бесплатно в хорошем качестве


    Вы не можете начинать темы
    Вы не можете отвечать на сообщения
    Вы не можете редактировать свои сообщения
    Вы не можете удалять свои сообщения
    Вы не можете голосовать в опросах
    Вы не можете прикреплять файлы к сообщениям
    Вы можете скачивать файлы