Ссылка на приватное зеркало нашего сайта всего за 1$. Внимание количество ограничено!!!

2 сезон

iTunes

1 сезон

1

2 сезон

2 сезон

iTunes

1 сезон

RePack

30

Новинка

ВАЖНО

ИГРА 18+

pack

RePack

MK11
pack

Забери бонус

RePack

jed

!!Акция!!

Alien_Rage

RePack

fifa19

RePack

Assassins Creed: Odyssey

RePack

NEED FOR SPEED™ PAYBACK

4 сезон

9 сезон

Бесстыжие 9 сезон

Все сериалы

все сериалы на PB.wtf

RePack

FAR CRY 5
  

Охотник за разумом / Mindhunter / Сезон: 2 / Серии: 1-9 из 9 (Дэвид Финчер, Эндрю Дуглас, Азиф Кападиа) [2019, триллер, драма, криминал, WEB-DLRip] MVO [Jaskier] pb.wtf

Охотник за разумом через торрент pb.wtf

Размер: 6.53 GB | Добавлен: 1 год 3 мес. назад | Торрент скачан:73 раза
Скачать  

26-08-2019 21:15 Охотник за разумом Скачать торрент  

Охотник за разумом / Mindhunter Год выпуска: 2019
Страна: США
Жанр: триллер, драма, криминал
Продолжительность: ~00:55:00
Перевод: Профессиональный (многоголосый закадровый) | Jaskier
Субтитры: отсутствуют

Режиссёр: Дэвид Финчер, Эндрю Дуглас, Азиф Кападиа

В ролях: Джонатан Грофф, Анна Торв, Сонни Валиченти, Холт МакКэллани, Коттер Смит, Сонни Валиченти, Ханна Гросс, Камерон Бриттон, Алекс Морф, Стэйси Рока, Джо Таттл

Описание: Молодой специальный агент ФБР Холден Форд (Джонатан Грофф) занимается переговорами с преступниками, захватившими заложников. После того как очередной разговор с убийцей закончился тем, что злоумышленник пустил себе пулю в голову, Форд приходит к выводу, что может на основе косвенных данных составить психологический портрет преступника и тем самым предугадать его последующие ходы. Агент пытается развить эту мысль, но не находит поддержки у руководства, ведь фактически он предлагает отслеживать потенциальных убийц и пресекать их деятельность ещё до совершения преступления. Зато поддержка обнаруживается в лице коллеги Билла Тенча (Холт МакКэллани), занимающегося бихевиоризмом, и университетского психолога доктора Карр (Анна Торв), исследующей поведение серийных убийц. Колеся по Америке с обучающей программой для полицейских, агенты проводят несколько любопытных интервью с содержащимися в тюрьмах преступниками и составляют психологические портреты, в которых пытаются найти закономерности, позволяющие затем останавливать потенциальных маньяков до совершения ими убийств.



Качество: WEB-DLRip
Формат: AVI

Видео: XviD, ~ 1400 kbps, 704x320 (2,2:1), 23.976 fps
Аудио 1: MP3, 48,0 КГц, 2 ch, 128 kbps - Rus
Аудио 2: MP3, 48,0 КГц, 2 ch, 128 kbps - Eng


Реклама: отсутствует
Переведено и озвучено: студией Jaskier
Общее
Полное имя                               : G:\Загрузки\Mindhunter. Season 2 (WEB-DLRip l 400p l Jaskier)\Mindhunter.S02E01.WEB-DLRip.Rus.Eng.Jaskier.avi
Формат                                   : AVI
Формат/Информация                        : Audio Video Interleave
Размер файла                             : 604 Мбайт
Продолжительность                        : 48 м. 29 с.
Общий поток                              : 1740 Кбит/сек
Программа кодирования                    : VirtualDubMod 1.5.10.3 | www.virtualdub-fr.org || (build 2550/release)
Библиотека кодирования                   : VirtualDubMod build 2550/release

Видео
Идентификатор                            : 0
Формат                                   : MPEG-4 Visual
Профиль формата                          : Advanced Simple@L5
Настройки формата                        : BVOP1 / Custom Matrix
Параметр BVOP формата                    : 1
Параметр QPel формата                    : Нет
Параметр GMC формата                     : Без точки перехода
Параметр матрицы формата                 : Выборочная
Идентификатор кодека                     : XVID
Идентификатор кодека/Подсказка           : XviD
Продолжительность                        : 48 м. 29 с.
Битрейт                                  : 1470 Кбит/сек
Ширина                                   : 704 пикселя
Высота                                   : 320 пикселей
Соотношение сторон                       : 2,2:1
Частота кадров                           : 23,976 (24000/1001) кадра/сек
Цветовое пространство                    : YUV
Субдискретизация насыщенности            : 4:2:0
Битовая глубина                          : 8 бит
Тип развёртки                            : Прогрессивная
Метод сжатия                             : С потерями
Бит/(Пиксели*Кадры)                      : 0.272
Размер потока                            : 510 Мбайт (84%)
Библиотека кодирования                   : XviD 73

Аудио #1
Идентификатор                            : 1
Формат                                   : MPEG Audio
Версия формата                           : Version 1
Профиль формата                          : Layer 3
Настройки формата                        : Joint stereo / MS Stereo
Идентификатор кодека                     : 55
Идентификатор кодека/Подсказка           : MP3
Продолжительность                        : 48 м. 29 с.
Вид битрейта                             : Постоянный
Битрейт                                  : 128 Кбит/сек
Каналы                                   : 2 канала
Частота                                  : 48,0 КГц
Метод сжатия                             : С потерями
Размер потока                            : 44,4 Мбайт (7%)
Выравнивание                             : Соединение по промежуткам
Продолжительность промежутка             : 42  мс. (1,00 видеокадр)
Время предзагрузки промежутка            : 504  мс.

Аудио #2
Идентификатор                            : 2
Формат                                   : MPEG Audio
Версия формата                           : Version 1
Профиль формата                          : Layer 3
Настройки формата                        : Joint stereo / MS Stereo
Идентификатор кодека                     : 55
Идентификатор кодека/Подсказка           : MP3
Продолжительность                        : 48 м. 29 с.
Вид битрейта                             : Постоянный
Битрейт                                  : 128 Кбит/сек
Каналы                                   : 2 канала
Частота                                  : 48,0 КГц
Метод сжатия                             : С потерями
Размер потока                            : 44,4 Мбайт (7%)
Выравнивание                             : Соединение по промежуткам
Продолжительность промежутка             : 42  мс. (1,00 видеокадр)
Время предзагрузки промежутка            : 504  мс.
скриншот  скриншот  скриншот  
pb.wtf



Скачать Охотник за разумом через торрент https://img15.lostpic.net/2019/08/25/803efc4b2bef85e0f37cf2ae2e638d43.jpg Скачать фильм Охотник за разумом через торрент бесплантно в хорошем качестве Описание: Молодой специальный агент ФБР Холден Форд (Джонатан Грофф) занимается переговорами с преступниками, захватившими заложников. ... 10 10 2
Info! Серебряная раздача, засчитывается только 50% скачанного.
Торрент: Зарегистрирован [2019-08-26 21:15] · скачан: 73 раз
Статус: √ проверено
Размер: 6.53 GB
Как cкачать? Как скачать Охотник за разумом через торрент | qTorrent

% Раздел Тема Автор DL S | L
Зарубежные сериалы [ 59.41 GB ] Охотник за разумом / Mindhunter / Сезон: 2 / Серии: 1-9 из 9 [2019 UHD WEBRip 2160p] DUB [SDI Media] bober100 Скачать
1 | 0
Зарубежные сериалы [ 14.05 GB ] Охотник за разумом / Mindhunter / Сезон: 2 / Серии: 1-9 из 9 [2019 WEB-DL 1080p] MVO [Jaskier] bober100 Скачать
1 | 0
Зарубежные сериалы [ 7.23 GB ] Охотник за разумом / Mindhunter / Сезон: 2 / Серии: 1-9 из 9 [2019 WEB-DLRip] MVO [LostFilm] bober100 Скачать
1 | 0
Зарубежные сериалы [ 8.96 GB ] Охотник за разумом / Mindhunter / Сезон: 2 / Серии: 1-9 из 9 [2019 WEB-DL 720p] killermax2013 Скачать
1 | 0
Зарубежные сериалы [ 7.66 GB ] Охотник за разумом / Mindhunter / Сезон: 2 / Серии: 1-9 из 9 [2019 WEB-DL 720p] MVO bober100 Скачать
1 | 0
Фильмы без перевода [ 13.25 GB ] Охотник за разумом / Mindhunter / Сезон: 2 / Серии: 1- 9 из 9 [2019 WEB-DL 1080p] 2x[Sub] killermax2013 Скачать
1 | 0
Зарубежные сериалы [ 8.26 GB ] Охотник за разумом / Mindhunter / Сезон: 2 / Серии: 1-9 из 9 [2019 WEBRip 720p] MVO [LostFilm] bober100 Скачать
2 | 0

28-11-2019 20:33  

Отключить всю рекламу на сайте

    Дорогой пользователь! Огромная просьба, поблагодарите релизера, оцените раздачу и оставьте свои комментарий, если Вы скачали Охотник за разумом через торрент бесплатно! Внесите свою лепту в развитие PiratBit!
    Комментировать посты могут только пользователи прошедшие не сложную регистрацию
    Показать сообщения:    

    Охотник за разумом через торрент
    Скачать бесплатно Охотник за разумом
    Охотник за разумом скачать торрент
    Охотник за разумом смотреть онлайн
    Cкачать фильм Охотник за разумом бесплатно
    Охотник за разумом скачать торрент в хорошем качестве
    Охотник за разумом смотреть онлайн бесплатно в хорошем качестве


    Вы не можете начинать темы
    Вы не можете отвечать на сообщения
    Вы не можете редактировать свои сообщения
    Вы не можете удалять свои сообщения
    Вы не можете голосовать в опросах
    Вы не можете прикреплять файлы к сообщениям
    Вы можете скачивать файлы