Ссылка на приватное зеркало нашего сайта всего за 1$. Внимание количество ограничено!!!

2 сезон

iTunes

1 сезон

1

2 сезон

2 сезон

iTunes

1 сезон

RePack

30

Новинка

ВАЖНО

ИГРА 18+

pack

RePack

MK11
pack

Забери бонус

RePack

jed

!!Акция!!

Alien_Rage

RePack

fifa19

RePack

Assassins Creed: Odyssey

RePack

NEED FOR SPEED™ PAYBACK

4 сезон

9 сезон

Бесстыжие 9 сезон

Все сериалы

все сериалы на PB.wtf

RePack

FAR CRY 5
  

Красивый, плохой, злой / Extremely Wicked (Джо Берлингер) [2019, триллер, драма, криминал, BDRemux 1080p] DUB [iTunes] + MVO [HDRezka Studio] pb.wtf

Красивый, плохой, злой через торрент pb.wtf

Раздают: 1 [ 0 KB/s ]
Размер: 17.33 GB | Добавлен: 1 год 4 мес. назад | Торрент скачан:345 раз
Скачать  

18-07-2019 13:32 Красивый, плохой, злой Скачать торрент  

Красивый, плохой, злой / Extremely Wicked««Inspired by True Events»»

Год выпуска: 2019
Страна: США
Жанр: триллер, драма, криминал, биография
Продолжительность: 01:50:18
Перевод: Дублированный, профессиональный многоголосый
Субтитры: Русские (Forced, full), Английский (Full, SDH)
Режиссер: Джо Берлингер
В ролях:

Зак Эфрон (Ted Bundy), Лили Коллинз (Liz Kendall), Кая Скоделарио (Carole Ann Boone), Джеффри Донован (Utah Defense Attorney John O'Connell), Анджела Сарафян (Joanna), Хэйли Джоэл Осмент (Liz's Co-Worker Jerry), Терри Кинни (Detective Mike Fisher), Брайан Джерати (Florida Public Defender Dan Dowd), Джим Парсонс (Florida Prosecutor Larry Simpson), Джон Малкович (Judge Edward D. Cowart), Сидни Воллмер (Babysitter), Macie Carmosino (2 Yr Old Molly)
Описание:
Тед Банди красив и харизматичен, и устоять перед таким невозможно. Очаровательная Элизабет мечтает встретить настоящую любовь. Кажется, до счастья можно дотянуться рукой. Но вот случается непредвиденное: внезапно Теда заключают под стражу, обвинив его в немыслимых по своей жестокости убийствах женщин. Как поверить, что этот нежный, умный и элегантный мужчина - маньяк-убийца? Её родной и милый Тед... Кто он? Нежный муж, любящий отец или самый кровожадный серийный убийца в истории Америки?
Рейтинг:

MPAA: R - Лицам до 17 лет обязательно присутствие взрослого
Качество: BDRemux 1080p
Формат: MKV
Видео: MPEG-4 AVC, 19.9 Мбит/с, 1920x1080, 23.976 кадр/с
Аудио 1: AC-3, 6 ch, 384 Kbps | Русский- Дублированный (iTunes)
Аудио 2: AC-3, 2.0 ch, 192 Kbps | Русский- MVO (HDRezka Studio)
Аудио 3: DTS-HD High-Res, 6 ch, 2046 Kbps | Английский
Навигация по главам: есть

General
Unique ID : 336969548611028069150737153142760653084 (0xFD81F972632B6F251DF1EB201D07C11C)
Complete name : /Volumes/Promise Pegasus/Extremely.Wicked.Shockingly.Evil.and.Vile.BDRemux.1080p.NNMClub.pk.mkv
Format : Matroska
Format version : Version 4
File size : 17.3 GiB
Duration : 1h 50mn
Overall bit rate mode : Variable
Overall bit rate : 22.5 Mbps
Movie name : Extremely Wicked, Shockingly Evil and Vile BDRemux Kosatka
Encoded date : UTC 2019-07-18 00:13:34
Writing application : mkvmerge v35.0.0 ('All The Love In The World') 64-bit
Writing library : libebml v1.3.9 + libmatroska v1.5.2

Video
ID : 1
Format : AVC
Format/Info : Advanced Video Codec
Format profile : High@L4.1
Format settings : CABAC / 4 Ref Frames
Format settings, CABAC : Yes
Format settings, ReFrames : 4 frames
Codec ID : V_MPEG4/ISO/AVC
Duration : 1h 50mn
Bit rate mode : Variable
Bit rate : 19.9 Mbps
Maximum bit rate : 38.0 Mbps
Width : 1 920 pixels
Height : 1 080 pixels
Display aspect ratio : 16:9
Frame rate mode : Constant
Frame rate : 23.976 (24000/1001) fps
Color space : YUV
Chroma subsampling : 4:2:0
Bit depth : 8 bits
Scan type : Progressive
Bits/(Pixel*Frame) : 0.400
Stream size : 15.3 GiB (88%)
Language : English
Default : Yes
Forced : No

Audio #1
ID : 2
Format : AC-3
Format/Info : Audio Coding 3
Commercial name : Dolby Digital
Codec ID : A_AC3
Duration : 1h 50mn
Bit rate mode : Constant
Bit rate : 384 Kbps
Channel(s) : 6 channels
Channel layout : L R C LFE Ls Rs
Sampling rate : 48.0 KHz
Frame rate : 31.250 fps (1536 SPF)
Bit depth : 16 bits
Compression mode : Lossy
Stream size : 303 MiB (2%)
Title : Russian Dub iTunes
Language : Russian
Service kind : Complete Main
Default : Yes
Forced : No

Audio #2
ID : 3
Format : AC-3
Format/Info : Audio Coding 3
Commercial name : Dolby Digital
Codec ID : A_AC3
Duration : 1h 50mn
Bit rate mode : Constant
Bit rate : 192 Kbps
Channel(s) : 2 channels
Channel layout : L R
Sampling rate : 48.0 KHz
Frame rate : 31.250 fps (1536 SPF)
Bit depth : 16 bits
Compression mode : Lossy
Stream size : 151 MiB (1%)
Title : Russian HDRezka Studio
Language : Russian
Service kind : Complete Main
Default : No
Forced : No

Audio #3
ID : 4
Format : DTS XBR
Format/Info : Digital Theater Systems
Commercial name : DTS-HD High Resolution Audio
Codec ID : A_DTS
Duration : 1h 50mn
Bit rate mode : Constant
Bit rate : 2 046 Kbps
Channel(s) : 6 channels
Channel layout : C L R Ls Rs LFE
Sampling rate : 48.0 KHz
Frame rate : 93.750 fps (512 SPF)
Bit depth : 24 bits
Compression mode : Lossy
Stream size : 1.58 GiB (9%)
Title : English Original
Language : English
Default : No
Forced : No

Text #1
ID : 5
Format : UTF-8
Codec ID : S_TEXT/UTF8
Codec ID/Info : UTF-8 Plain Text
Duration : 1h 41mn
Bit rate : 1 bps
Count of elements : 20
Stream size : 1.43 KiB (0%)
Title : Russian forced
Language : Russian
Default : Yes
Forced : Yes

Text #2
ID : 6
Format : UTF-8
Codec ID : S_TEXT/UTF8
Codec ID/Info : UTF-8 Plain Text
Duration : 1h 45mn
Bit rate : 117 bps
Count of elements : 1658
Stream size : 90.6 KiB (0%)
Title : Russian full
Language : Russian
Default : No
Forced : No

Text #3
ID : 7
Format : UTF-8
Codec ID : S_TEXT/UTF8
Codec ID/Info : UTF-8 Plain Text
Duration : 1h 43mn
Bit rate : 72 bps
Count of elements : 1648
Stream size : 55.1 KiB (0%)
Title : English full
Language : English
Default : No
Forced : No

Text #4
ID : 8
Format : UTF-8
Codec ID : S_TEXT/UTF8
Codec ID/Info : UTF-8 Plain Text
Duration : 1h 44mn
Bit rate : 79 bps
Count of elements : 1832
Stream size : 61.2 KiB (0%)
Title : English SDH
Language : English
Default : No
Forced : No

Menu
00:00:00.000 : :Глава 01
00:07:39.625 : :Глава 02
00:15:31.680 : :Глава 03
00:22:05.407 : :Глава 04
00:29:57.587 : :Глава 05
00:36:14.088 : :Глава 06
00:44:34.922 : :Глава 07
00:52:50.167 : :Глава 08
01:00:27.624 : :Глава 09
01:07:39.430 : :Глава 10
01:13:04.671 : :Глава 11
01:20:18.522 : :Глава 12
01:26:32.020 : :Глава 13
01:33:11.043 : :Глава 14
01:42:35.941 : :Глава 15
pb.wtf



Скачать Красивый, плохой, злой через торрент https://a.radikal.ru/a10/1907/f3/41a5bb6cd5f5.png Скачать фильм Красивый, плохой, злой через торрент бесплантно в хорошем качестве Описание: Тед Банди красив и харизматичен, и устоять перед таким невозможно. Очаровательная Элизабет мечтает встретить настоящую любовь. ... 10 10 6
Info! Золотая раздача, скачанное не засчитывается.
Торрент: Зарегистрирован [2019-07-18 13:32] · скачан: 345 раз
Статус: √ проверено
Размер: 17.33 GB
Как cкачать? Как скачать Красивый, плохой, злой через торрент | qTorrent

% Раздел Тема Автор DL S | L
Фильмы [HD 720p, 1080p] (Хороший звук DUB, MVO) [ 7.64 GB ] Красивый плохой злой / Extremely Wicked Shockingly Evil and Vile [2019 биография BDRip 1080p] +MVO [HDRezka Studio] bober100 Скачать
4 | 0
Фильмы 2019-2020 [DVDrip, WEB-DLRip, HDrip] (DUB, MVO) [ 1.41 GB ] Красивый плохой злой / Extremely Wicked Shockingly Evil and Vile [2019 биография BDRip] - Twi7ter Скачать
27 | 0
Фильмы [HD 720p, 1080p] (Хороший звук DUB, MVO) [ 4.11 GB ] Красивый плохой злой / Extremely Wicked Shockingly Evil and Vile [2019 биография BDRip 720p] +MVO [HDRezka Studio] bober100 Скачать
1 | 0
Фильмы 2019-2020 [DVDrip, WEB-DLRip, HDrip] (DUB, MVO) [ 2.17 GB ] Красивый плохой злой / Extremely Wicked Shockingly Evil and Vile [2019 биография BDRip-AVC] +MVO [HDRezka Studio] bober100 Скачать
3 | 0
Фильмы 2019-2020 [DVDrip, WEB-DLRip, HDrip] (DUB, MVO) [ 1.46 GB ] Красивый плохой злой / Extremely Wicked Shockingly Evil and Vile [2019 биография BDRip] bober100 Скачать
1 | 0

28-11-2019 20:33  

Отключить всю рекламу на сайте

    Дорогой пользователь! Огромная просьба, поблагодарите релизера, оцените раздачу и оставьте свои комментарий, если Вы скачали Красивый, плохой, злой через торрент бесплатно! Внесите свою лепту в развитие PiratBit!
    Комментировать посты могут только пользователи прошедшие не сложную регистрацию
    Показать сообщения:    

    Красивый, плохой, злой через торрент
    Скачать бесплатно Красивый, плохой, злой
    Красивый, плохой, злой скачать торрент
    Красивый, плохой, злой смотреть онлайн
    Cкачать фильм Красивый, плохой, злой бесплатно
    Красивый, плохой, злой скачать торрент в хорошем качестве
    Красивый, плохой, злой смотреть онлайн бесплатно в хорошем качестве


    Вы не можете начинать темы
    Вы не можете отвечать на сообщения
    Вы не можете редактировать свои сообщения
    Вы не можете удалять свои сообщения
    Вы не можете голосовать в опросах
    Вы не можете прикреплять файлы к сообщениям
    Вы можете скачивать файлы