Ссылка на приватное зеркало нашего сайта всего за 1$. Внимание количество ограничено!!!

2 сезон

iTunes

1 сезон

1

iTunes

iTunes

iTunes

1 сезон

RePack

30

ИГРА 18+

pack

ВАЖНО

!!Акция!!

Alien_RageХит недели

RePack

MK11
pack

Забери бонус

RePack

jed

!!Акция!!

Alien_Rage

RePack

fifa19

RePack

Assassins Creed: Odyssey

RePack

NEED FOR SPEED™ PAYBACK

4 сезон

9 сезон

Бесстыжие 9 сезон

Все сериалы

все сериалы на PB.wtf

RePack

FAR CRY 5
  

Следователь Горчакова / Сезон: 2 / Серии: 1-12 из 12 (Вера Яковенко, Александр Сальников) [2019, Детектив, драма, криминал, WEB-DLRip-AVC] pb.wtf

Следователь Горчакова через торрент pb.wtf

Размер: 8.35 GB | Добавлен: 1 год 1 мес. назад | Торрент скачан:27 раз
Скачать  

27-08-2019 06:52 Следователь Горчакова Скачать торрент  

Следователь Горчакова
Год выпуска: 2019
Страна: Молдова, Россия, Украина
Жанр: Детектив, драма, криминал
Продолжительность: ~ 00:50:00
Субтитры: отсутствуют

Режиссер: Вера Яковенко, Александр Сальников

В ролях: Настя Задорожная, Антон Батырев, Виктор Бабак, Алексей Коюда, Олег Коркушко, Игорь Кистол, Алексей Зубков, Николай Боклан, Андрей Саминин, Анатолий Зиновенко, Наталия Васько, Владимир Мельник

Описание: Следователь убойного отдела Анна Горчакова благодаря своей интуиции и нестандартному мышлению расследует самые запутанные преступления. За это ее ценит руководство и любят сотрудники и подчиненные. Но вот на семью и личную жизнь у Горчаковой времени не остается. Муж Анны, шеф-повар и акционер элитного ресторана, настаивает, чтобы она уволилась из правоохранительных органов и, наконец, родила ребенка. Но при расследовании очередного убийства погибает ее сослуживец, и Горчакова не может оставить работу, пока не отомстит киллеру. А параллельно с поиском этого убийцы Горчакова вынуждена расследовать другие особо тяжкие преступления... Кроме того, в жизни главной героини начинаются постоянные конфликты с мужем. Горчаков ревнует жену к новому помощнику прокурора, ведь тот давно знаком с Анной и влюблен в нее с первого класса...

Качество: WEB-DLRip-AVC
Формат: MKV

Видео: 1024x576, (16:9), 25 fps, AVC MPEG-4 (x264), High@L4.1 ~ 1600 kbps , 0.109 bit/pixel
Аудио: 44,1 kHz, AC3, 2/0 (L,R) ch, ~192.00 kbps avg
скриншот  скриншот  скриншот  скриншот  

Общее
Уникальный идентификатор : 207297855389385188410312720574361445814 (0x9BF41D5DA54096E48B2B1E8F996D25B6)
Полное имя : C:\Следователь Горчакова.S02.(2019).WEB-DLRip.(AVC).Files-x\01.Следователь Горчакова.S02.(2019).WEB-DLRip.(AVC).by.Серый1779.Files-x.mkv
Формат : Matroska
Версия формата : Version 2
Размер файла : 698 Мбайт
Продолжительность : 54 м. 29 с.
Общий поток : 1790 Кбит/сек
Дата кодирования : UTC 2019-08-19 21:04:24
Программа кодирования : mkvmerge v7.8.0 (''River Man'') 32bit built on Apr 3 2015 12:11:22
Библиотека кодирования : libebml v1.3.1 + libmatroska v1.4.2

Видео
Идентификатор : 1
Формат : AVC
Формат/Информация : Advanced Video Codec
Профиль формата : High@L4.1
Настройки формата : CABAC / 9 Ref Frames
Параметр CABAC формата : Да
Параметр RefFrames формата : 9 кадров
Идентификатор кодека : V_MPEG4/ISO/AVC
Продолжительность : 54 м. 29 с.
Битрейт : 1600 Кбит/сек
Ширина : 1024 пикселя
Высота : 576 пикселей
Соотношение сторон : 16:9
Режим частоты кадров : Постоянный
Частота кадров : 25,000 кадров/сек
Цветовое пространство : YUV
Субдискретизация насыщенности : 4:2:0
Битовая глубина : 8 бит
Тип развёртки : Прогрессивная
Бит/(Пиксели*Кадры) : 0.109
Размер потока : 609 Мбайт (87%)
Библиотека кодирования : x264 core 146 r2538 121396c
Настройки программы : cabac=1 / ref=9 / deblock=1:-2:-1 / analyse=0x3:0x133 / me=umh / subme=9 / psy=1 / psy_rd=1.00:0.15 / mixed_ref=1 / me_range=32 / chroma_me=1 / trellis=2 / 8x8dct=1 / cqm=0 / deadzone=21,11 / fast_pskip=0 / chroma_qp_offset=-3 / threads=18 / lookahead_threads=3 / sliced_threads=0 / nr=0 / decimate=1 / interlaced=0 / bluray_compat=0 / constrained_intra=0 / bframes=9 / b_pyramid=2 / b_adapt=2 / b_bias=0 / direct=1 / weightb=1 / open_gop=0 / weightp=2 / keyint=250 / keyint_min=25 / scenecut=40 / intra_refresh=0 / rc=2pass / mbtree=0 / bitrate=1600 / ratetol=1.0 / qcomp=0.60 / qpmin=0 / qpmax=69 / qpstep=4 / cplxblur=20.0 / qblur=0.5 / ip_ratio=1.40 / pb_ratio=1.30 / aq=2:1.00
Default : Да
Forced : Нет
Цветовой диапазон : Limited
Основные цвета : BT.709
Характеристики трансфера : BT.709
Коэффициенты матрицы : BT.709

Аудио
Идентификатор : 2
Формат : AC-3
Формат/Информация : Audio Coding 3
Коммерческое название : Dolby Digital
Идентификатор кодека : A_AC3
Продолжительность : 54 м. 29 с.
Вид битрейта : Постоянный
Битрейт : 192 Кбит/сек
Каналы : 2 канала
ChannelLayout : L R
Частота : 44,1 КГц
Частота кадров : 28,711 кадров/сек (1536 SPF)
Битовая глубина : 16 бит
Метод сжатия : С потерями
Размер потока : 74,8 Мбайт (11%)
ServiceKind/String : Complete Main
Default : Да
Forced : Нет

Внимание! Раздача ведётся путём добавления новых серий; при каждом добавлении создfётся новый торрент. Чтобы начать докачку новой серии, пользователям необходимо сделать следующее: (1) остановить скачивание, (2) удалить старый торрент у себя из клиента (старые серии удалять не надо), (3) скачать новый торрент и запустить его у себя в клиенте вместо старого, при этом указать клиенту путь в старую папку куда и должно происходить скачивание новых серий.

Ваш клиент при этом должен произвести хеширование (проверку) старой папки (если не производит сам - помогите ему сделать это), и будет докачивать только те серии которых у вас ещё нет. Старые серии при этом не удаляются, а продолжают раздаваться!

Eсли вы уже удалили старые серии, то предотвратить повторную закачку старых серий можно, отжав галочку в соответсвующих местах при запуске нового торрента.
pb.wtf



Скачать Следователь Горчакова через торрент https://i109.fastpic.ru/big/2019/0501/80/87ba00c43474d9ce8925791d53912580.jpg Скачать фильм Следователь Горчакова через торрент бесплантно в хорошем качестве Описание: Следователь убойного отдела Анна Горчакова благодаря своей интуиции и нестандартному мышлению расследует самые запутанные ... 10 10 3
Торрент: Зарегистрирован [2019-09-06 07:02] · скачан: 27 раз
Статус: √ проверено
Размер: 8.35 GB
Как cкачать? Как скачать Следователь Горчакова через торрент | qTorrent

28-11-2019 20:33  

Отключить всю рекламу на сайте

    Дорогой пользователь! Огромная просьба, поблагодарите релизера, оцените раздачу и оставьте свои комментарий, если Вы скачали Следователь Горчакова через торрент бесплатно! Внесите свою лепту в развитие PiratBit!
    Комментировать посты могут только пользователи прошедшие не сложную регистрацию
    Показать сообщения:    

    Следователь Горчакова через торрент
    Скачать бесплатно Следователь Горчакова
    Следователь Горчакова скачать торрент
    Следователь Горчакова смотреть онлайн
    Cкачать фильм Следователь Горчакова бесплатно
    Следователь Горчакова скачать торрент в хорошем качестве
    Следователь Горчакова смотреть онлайн бесплатно в хорошем качестве


    Вы не можете начинать темы
    Вы не можете отвечать на сообщения
    Вы не можете редактировать свои сообщения
    Вы не можете удалять свои сообщения
    Вы не можете голосовать в опросах
    Вы не можете прикреплять файлы к сообщениям
    Вы можете скачивать файлы