новый адрес пиратбит piratbit
MEGA NEWS Получи личный уникальный адрес сайта и защити себя от блокировок. Внимание количество ограничено!!!

iTunes

1+1

iTunes

мы

iTunes

1

iTunes

Чернобыль

iTunes

Ральф против интернета

Лицензия

ПШазам

Лицензия

Игра престолов

Лицензия

30
pack

ВАЖНО

!!Акция!!

Alien_RageХит недели

RePack

Resident Evil 21

ИГРА 18+

pack

RePack

Metro:Exodus

!!Акция!!

Alien_Rage

RePack

fifa19

RePack

Assassins Creed: Odyssey

RePack

NEED FOR SPEED™ PAYBACK

3 сезон

9 сезон

Бесстыжие 9 сезон

Все сериалы

все сериалы на PB.wtf

RePack

FAR CRY 5
Ребята, катастрофически не хватает 1900р. для оплаты серверов за АВГУСТ (всвязи с блокировками трафик упал в 3 раза), 1-2р., выручайте.
  

Неисправимый / L'Incorrigible (Филипп де Брока) [1975, комедия, BDRip 720p by msltel] 2 x MVO pb.wtf

Неисправимый через торрент pb.wtf

Размер: 4.1 GB | Добавлен: 1 мес. 26 д. назад | Торрент скачан:19 раз
Скачать  

27-08-2019 08:37 Неисправимый Скачать торрент  

Название: Неисправимый
Оригинальное название: L'Incorrigible
Год выпуска: 1975
Страна: Франция
Жанр: комедия
Продолжительность: 01:39:18
Перевод: профессиональный многоголосый

Режиссер: Филипп де Брока
В ролях: Жан-Поль Бельмондо, Женевьев Бюжо, Жюльен Гиомар, Шарль Жерар, Даниэль Секкальди, Капюсин, Андреа Ферреоль, Мишель Бон, Альбер Симоно, Паскаль Робер

О фильме: Мошенник высшего разряда, выйдя из тюрьмы, с повышенным энтузиазмом принимается за своё прежнее ремесло. Он продаёт чужие квартиры, яхты и даже истребители "Мираж" африканским странам. Обаятельнейшего пройдоху знает весь Париж, все женщины вешаются ему на шею... Но вот к нему приходит очаровательная женщина, психолог из полиции, которой поручено наблюдать за ним и помочь его адаптации к честной жизни...



Качество: BDRip 720p
Формат: MKV
Видео: MPEG-4 AVC, 5328 Кбит/с, 1204x720
Аудио 1: русский, AC3, 192 kbps, 2 ch, 48 kHz [закадровый многоголосый, ОРТ]
Аудио 2: русский, AC3, 192 kbps, 2 ch, 48 kHz [закадровый многоголосый, Твистер]
Аудио 3: французский, AC3, 192 kbps, 2 ch, 48 kHz [оригинал]
Субтитры 1: русские
Субтитры 2: французские
Главы/чаптеры
Общее
Уникальный идентификатор : 246276388173576229954881408830385039369 (0xB9471B68258E01A6B69A072B44C62809)
Полное имя : D:\Video\Неисправимый.1975.BDRip 720p by msltel.mkv
Формат : Matroska
Версия формата : Version 4
Размер файла : 4,10 Гбайт
Продолжительность : 1 ч. 39 м.
Общий поток : 5906 Кбит/сек
Название фильма : Rip by msltel
Дата кодирования : UTC 2019-08-27 07:42:11
Программа кодирования : mkvmerge v8.2.0 ('World of Adventure') 64bit
Библиотека кодирования : libebml v1.3.1 + libmatroska v1.4.2

Видео
Идентификатор : 1
Формат : AVC
Формат/Информация : Advanced Video Codec
Профиль формата : High@L4.1
Настройки формата : CABAC / 9 Ref Frames
Параметр CABAC формата : Да
Параметр RefFrames формата : 9 кадров
Идентификатор кодека : V_MPEG4/ISO/AVC
Продолжительность : 1 ч. 39 м.
Битрейт : 5328 Кбит/сек
Ширина : 1204 пикселя
Высота : 720 пикселей
Соотношение сторон : 5:3
Режим частоты кадров : Постоянный
Частота кадров : 24,000 кадра/сек
Цветовое пространство : YUV
Субдискретизация насыщенности : 4:2:0
Битовая глубина : 8 бит
Тип развёртки : Прогрессивная
Бит/(Пиксели*Кадры) : 0.256
Размер потока : 3,70 Гбайт (90%)
Библиотека кодирования : x264 core 157 r2935 545de2f
Настройки программы : cabac=1 / ref=9 / deblock=1:-2:-2 / analyse=0x3:0x113 / me=umh / subme=11 / psy=1 / psy_rd=1.00:0.15 / mixed_ref=1 / me_range=32 / chroma_me=1 / trellis=2 / 8x8dct=1 / cqm=0 / deadzone=21,11 / fast_pskip=0 / chroma_qp_offset=-3 / threads=6 / lookahead_threads=1 / sliced_threads=0 / nr=0 / decimate=1 / interlaced=0 / bluray_compat=0 / constrained_intra=0 / bframes=7 / b_pyramid=2 / b_adapt=2 / b_bias=0 / direct=1 / weightb=1 / open_gop=0 / weightp=2 / keyint=230 / keyint_min=23 / scenecut=40 / intra_refresh=0 / rc_lookahead=40 / rc=crf / mbtree=1 / crf=17.0 / qcomp=0.60 / qpmin=0 / qpmax=69 / qpstep=4 / vbv_maxrate=50000 / vbv_bufsize=62500 / crf_max=0.0 / nal_hrd=none / filler=0 / ip_ratio=1.40 / aq=1:1.00
Язык : French
Default : Да
Forced : Нет

Аудио #1
Идентификатор : 2
Формат : AC-3
Формат/Информация : Audio Coding 3
Коммерческое название : Dolby Digital
Идентификатор кодека : A_AC3
Продолжительность : 1 ч. 39 м.
Вид битрейта : Постоянный
Битрейт : 192 Кбит/сек
Каналы : 2 канала
ChannelLayout : L R
Частота : 48,0 КГц
Частота кадров : 31,250 кадров/сек (1536 SPF)
Битовая глубина : 16 бит
Метод сжатия : С потерями
Размер потока : 136 Мбайт (3%)
Заголовок : MVO OPT
Язык : Russian
ServiceKind/String : Complete Main
Default : Да
Forced : Нет

Аудио #2
Идентификатор : 3
Формат : AC-3
Формат/Информация : Audio Coding 3
Коммерческое название : Dolby Digital
Идентификатор кодека : A_AC3
Продолжительность : 1 ч. 39 м.
Вид битрейта : Постоянный
Битрейт : 192 Кбит/сек
Каналы : 2 канала
ChannelLayout : L R
Частота : 48,0 КГц
Частота кадров : 31,250 кадров/сек (1536 SPF)
Битовая глубина : 16 бит
Метод сжатия : С потерями
Размер потока : 136 Мбайт (3%)
Заголовок : MVO Твистер
Язык : Russian
ServiceKind/String : Complete Main
Default : Нет
Forced : Нет

Аудио #3
Идентификатор : 4
Формат : AC-3
Формат/Информация : Audio Coding 3
Коммерческое название : Dolby Digital
Идентификатор кодека : A_AC3
Продолжительность : 1 ч. 39 м.
Вид битрейта : Постоянный
Битрейт : 192 Кбит/сек
Каналы : 2 канала
ChannelLayout : L R
Частота : 48,0 КГц
Частота кадров : 31,250 кадров/сек (1536 SPF)
Битовая глубина : 16 бит
Метод сжатия : С потерями
Размер потока : 136 Мбайт (3%)
Заголовок : original
Язык : French
ServiceKind/String : Complete Main
Default : Нет
Forced : Нет

Текст #1
Идентификатор : 5
Формат : UTF-8
Идентификатор кодека : S_TEXT/UTF8
Идентификатор кодека/Информация : UTF-8 Plain Text
Продолжительность : 1 ч. 37 м.
Битрейт : 111 бит/сек
ElementCount : 1059
Размер потока : 79,2 Кбайт (0%)
Заголовок : русские
Язык : Russian
Default : Нет
Forced : Нет

Текст #2
Идентификатор : 6
Формат : UTF-8
Идентификатор кодека : S_TEXT/UTF8
Идентификатор кодека/Информация : UTF-8 Plain Text
Продолжительность : 1 ч. 39 м.
Битрейт : 69 бит/сек
ElementCount : 1498
Размер потока : 50,5 Кбайт (0%)
Заголовок : французские
Язык : French
Default : Нет
Forced : Нет

Меню
00:00:00.000 : :Chapitre 01
00:08:08.416 : :Chapitre 02
00:15:03.916 : :Chapitre 03
00:22:08.208 : :Chapitre 04
00:31:20.333 : :Chapitre 05
00:40:50.833 : :Chapitre 06
00:47:01.500 : :Chapitre 07
00:55:10.375 : :Chapitre 08
01:02:55.583 : :Chapitre 09
01:12:25.416 : :Chapitre 10
01:19:02.375 : :Chapitre 11
01:27:22.916 : :Chapitre 12
pb.wtf



Скачать Неисправимый через торрент https://c.radikal.ru/c01/1908/9d/d0d963c14c3f.png Скачать фильм Неисправимый через торрент бесплантно в хорошем качестве О фильме: Мошенник высшего разряда, выйдя из тюрьмы, с повышенным энтузиазмом принимается за своё прежнее ремесло. Он продаёт чужие ... 10 10 5
Info! Золотая раздача, скачанное не засчитывается.
Торрент: Зарегистрирован [2019-08-27 08:37] · скачан: 19 раз
Статус: √ проверено
Размер: 4.1 GB
Как cкачать? Как скачать Неисправимый через торрент | qTorrent


>> Регистрируемся здесь <<






Отзывы и комментарии о схеме читаем и пишем здесь: ---> Отзывы и комментарии о схеме

Новые благодарочки в телеграм довольных пользователей:
скриншот   скриншот   скриншот   скриншот   скриншот

29-08-2019 20:18 Неисправимый Скачать торрент  

Топик был перенесен из форума Фильмы [HD 720p, 1080p] (Хороший звук DUB, MVO) в форум Классика зарубежного кино


bober100pb.wtf



    Дорогой пользователь! Огромная просьба, поблагодарите релизера, оцените раздачу и оставьте свои комментарий, если Вы скачали Неисправимый через торрент бесплатно! Внесите свою лепту в развитие PiratBit!
    Комментировать посты могут только пользователи прошедшие не сложную регистрацию
    Показать сообщения:    

    Неисправимый через торрент
    Скачать бесплатно Неисправимый
    Неисправимый скачать торрент
    Неисправимый смотреть онлайн
    Cкачать фильм Неисправимый бесплатно
    Неисправимый скачать торрент в хорошем качестве
    Неисправимый смотреть онлайн бесплатно в хорошем качестве


    Вы не можете начинать темы
    Вы не можете отвечать на сообщения
    Вы не можете редактировать свои сообщения
    Вы не можете удалять свои сообщения
    Вы не можете голосовать в опросах
    Вы не можете прикреплять файлы к сообщениям
    Вы можете скачивать файлы