2 сезон

iTunes

MVO

1

2 сезон

iTunes

iTunes

1 сезон

RePack

30

Новинка

ВАЖНО

ИГРА 18+

pack

RePack

MK11
pack

Легкие деньги

RePack

jed

RePack

fifa19

RePack

RDR2

RePack

NEED FOR SPEED™ PAYBACK

4 сезон

9 сезон

Бесстыжие 9 сезон

Все сериалы

все сериалы на PB.wtf

RePack

FAR CRY 5

Anonymous, доброе утро, мы не успеваем собрать деньги на оплату серверов за декабрь и январь, помогите нам пожалуйста в это трудное время. В качестве благодарности мы отключим Вам всю рекламу на сайте (укажите свой ник в строку Ваше имя)!

×
  
Magnet ссылка

13 причин почему / 13 Reasons Why / Сезон: 3 / Серии: 1-13 из 13 (Джессика Ю, Кайл Патрик Альварез, Грегг Араки) [2019, Драма, детектив, WEB-DL 720p] [MVO] (TVShows) pb.wtf

13 причин почему через торрент pb.wtf

Размер: 14.86 GB | Добавлен: 1 год 4 мес. назад | Торрент скачан:2 раза
Скачать  

27-08-2019 17:48 13 причин почему Скачать торрент  

13 причин почему / 13 Reasons Why
Год выпуска: 2019
Страна: США
Жанр: Драма, детектив
Продолжительность: ~ 00:57:00
Перевод: Профессиональный (многоголосый) *TVShows*
Субтитры: английские

Режиссер: Джессика Ю, Кайл Патрик Альварез, Грегг Араки

В ролях: Дилан Миннетт, Кэтрин Лэнгфорд, Кейт Уолш, Кристиан Наварро, Майлс Хейзер, Алиша Боэ, Брэндон Флинн, Дерек Люк, Джастин Прентис, Девин Друид и другие. Третий сезон американского молодежного сериала по книге Джея Эшера.
История старшеклассницы Ханны Бейкер, которая совершила самоубийство, охватывает всю школу.Как показали аудио кассеты, которые она оставила после смерти, все одноклассники так или иначе стали причиной этой трагедии. Единственный человек, который не был к этому причастен и горячо любил Ханну — Клэй.

ratingскриншот  

Качество: WEB-DL 720p
Формат: MKV

Видео: V_MPEG4/ISO/AVC, 1280x720, ~ 2 700 Кбит/с
Аудио 1: AC3; 48 kHz / 384 kbps / 16-bit; TVShows
Аудио 2: E-AC-3; 48 kHz / 640 kbps / 16-bit; Original
скриншот  скриншот  скриншот  

General
Unique ID : 191789942841331809144242307597674363588 (0x9049663EC0EB02CCB80EBAE370A23AC4)
Complete name : E:\13.Reasons.Why.S03.720p.TVShows\13.Reasons.Why.S03E01.720p.TVShows.mkv
Format : Matroska
Format version : Version 4 / Version 2
File size : 1.15 GiB
Duration : 56 min 13 s
Overall bit rate mode : Variable
Overall bit rate : 2 929 kb/s
Encoded date : UTC 2019-08-27 10:11:32
Writing application : mkvmerge v33.1.0 ('Primrose') 64-bit
Writing library : libebml v1.3.7 + libmatroska v1.5.0

Video
ID : 1
Format : AVC
Format/Info : Advanced Video Codec
Format profile : Main@L3.1
Format settings : CABAC / 3 Ref Frames
Format settings, CABAC : Yes
Format settings, RefFrames : 3 frames
Codec ID : V_MPEG4/ISO/AVC
Duration : 56 min 13 s
Bit rate mode : Variable
Bit rate : 1 847 kb/s
Nominal bit rate : 1 960 kb/s
Maximum bit rate : 2 940 kb/s
Width : 1 280 pixels
Height : 720 pixels
Display aspect ratio : 16:9
Frame rate mode : Constant
Frame rate : 23.976 (24000/1001) FPS
Color space : YUV
Chroma subsampling : 4:2:0
Bit depth : 8 bits
Scan type : Progressive
Bits/(Pixel*Frame) : 0.084
Stream size : 743 MiB (63%)
Writing library : x264 core 148 r2715 7e75228
Encoding settings : cabac=1 / ref=3 / deblock=1:0:0 / analyse=0x1:0x111 / me=umh / subme=10 / psy=1 / psy_rd=1.00:0.00 / mixed_ref=1 / me_range=24 / chroma_me=1 / trellis=2 / 8x8dct=0 / cqm=0 / deadzone=21,11 / fast_pskip=1 / chroma_qp_offset=-2 / threads=8 / lookahead_threads=1 / sliced_threads=0 / nr=0 / decimate=1 / interlaced=0 / bluray_compat=0 / stitchable=1 / constrained_intra=0 / bframes=2 / b_pyramid=0 / b_adapt=2 / b_bias=0 / direct=3 / weightb=1 / open_gop=0 / weightp=2 / keyint=250 / keyint_min=23 / scenecut=0 / intra_refresh=0 / rc_lookahead=48 / rc=2pass / mbtree=1 / bitrate=1960 / ratetol=1.0 / qcomp=0.50 / qpmin=6 / qpmax=51 / qpstep=4 / cplxblur=20.0 / qblur=0.5 / vbv_maxrate=2940 / vbv_bufsize=3920 / nal_hrd=vbr / filler=0 / ip_ratio=1.40 / aq=1:1.00
Default : Yes
Forced : No

Audio #1
ID : 2
Format : AC-3
Format/Info : Audio Coding 3
Format settings, Endianness : Big
Codec ID : A_AC3
Duration : 56 min 13 s
Bit rate mode : Constant
Bit rate : 384 kb/s
Channel(s) : 6 channels
Channel positions : Front: L C R, Side: L R, LFE
Sampling rate : 48.0 kHz
Frame rate : 31.250 FPS (1536 SPF)
Bit depth : 16 bits
Compression mode : Lossy
Stream size : 154 MiB (13%)
Title : TVShows
Language : Russian
Service kind : Complete Main
Default : Yes
Forced : Yes

Audio #2
ID : 3
Format : E-AC-3
Format/Info : Enhanced Audio Coding 3
Format settings, Endianness : Big
Codec ID : A_EAC3
Duration : 56 min 13 s
Bit rate mode : Constant
Bit rate : 640 kb/s
Channel(s) : 6 channels
Channel positions : Front: L C R, Side: L R, LFE
Sampling rate : 48.0 kHz
Frame rate : 187.500 FPS (256 SPF)
Compression mode : Lossy
Stream size : 257 MiB (22%)
Title : Original
Language : English
Service kind : Complete Main
Default : No
Forced : No

Text
ID : 4
Format : UTF-8
Codec ID : S_TEXT/UTF8
Codec ID/Info : UTF-8 Plain Text
Title : English
Language : English
Default : No
Forced : No

Когда раздача ведётся путём добавления новых серий, при каждом добавлении создётся новый торрент. Чтобы начать докачку новой серии, пользователям необходимо сделать следующее:
(1) остановить скачивание,
(2) удалить старый торрент у себя из клиента (старые серии удалять не надо),
(3) скачать новый торрент и запустить его у себя в клиенте вместо старого, при этом указать клиенту путь в старую папку, куда и должно происходить скачивание новых серий.
Ваш клиент при этом должен произвести хеширование (проверку) старой папки (если не производит сам - помогите ему сделать это), и будет докачивать только те серии, которых у вас ещё нет. Старые серии при этом не удаляются, а продолжают раздаваться!
Eсли вы уже удалили старые серии, то предотвратить повторную закачку старых серий можно, отжав галочку в соответсвующих местах при запуске нового торрента. По возможности, желательно не удалять старые серии как можно дольше, чтобы релизёр не столько продолжал раздавать старые серии, а смог сконцентрироваться на новых.
pb.wtf



Скачать 13 причин почему через торрент https://i87.fastpic.ru/big/2019/0823/ef/2a95afd323349b68c92b61035cedf1ef.jpg Скачать фильм 13 причин почему через торрент бесплантно в хорошем качестве В ролях: Дилан Миннетт, Кэтрин Лэнгфорд, Кейт Уолш, Кристиан Наварро, Майлс Хейзер, Алиша Боэ, Брэндон Флинн, Дерек Люк, Джастин Прентис, ... 10 10 1
Торрент: Зарегистрирован [2019-09-07 14:05] · скачан: 2 раз
Статус: √ проверено
Размер: 14.86 GB
Как cкачать? Как скачать 13 причин почему через торрент | UTorrent

% Раздел Тема Автор DL S | L
Зарубежные сериалы [ 24.17 GB ] 13 причин почему / 13 Reasons Why / Сезон: 3 / Серии: 1- 13 из 13 [2019 WEB-DL 1080p] [MVO] killermax2013 Скачать
1 | 0
Зарубежные сериалы [ 10.37 GB ] 13 причин почему / 13 Reasons Why / Сезон: 3 / Серии: 1-13 из 13 [2019 WEBRip] MVO [LostFilm] bober100 Скачать
1 | 0

28-11-2019 20:33  

Отключить всю рекламу на сайте

    Дорогой пользователь! Огромная просьба, поблагодарите релизера, оцените раздачу и оставьте свои комментарий, если Вы скачали 13 причин почему через торрент бесплатно! Внесите свою лепту в развитие PiratBit!
    Комментировать посты могут только пользователи прошедшие не сложную регистрацию
    Показать сообщения:    

    13 причин почему через торрент
    Скачать бесплатно 13 причин почему
    13 причин почему скачать торрент
    13 причин почему смотреть онлайн
    Cкачать фильм 13 причин почему бесплатно
    13 причин почему скачать торрент в хорошем качестве
    13 причин почему смотреть онлайн бесплатно в хорошем качестве


    Вы не можете начинать темы
    Вы не можете отвечать на сообщения
    Вы не можете редактировать свои сообщения
    Вы не можете удалять свои сообщения
    Вы не можете голосовать в опросах
    Вы не можете прикреплять файлы к сообщениям
    Вы можете скачивать файлы