Ссылка на приватное зеркало всего за 1$. Внимание количество ограничено!!!

OK

1+1

iTunes

мы

OK

1

WEB-DLRip

Джокер

Пифагор

Ведьмак / The Witcher сериал

Лицензия

ПШазам

ОК

Оно 2

iTunes

30
pack

Вам бонус

ВАЖНО

!!Акция!!

Alien_RageХит недели

RePack

Resident Evil 21

ИГРА 18+

pack

RePack

jed

!!Акция!!

Alien_Rage

RePack

fifa19

RePack

Assassins Creed: Odyssey

RePack

NEED FOR SPEED™ PAYBACK

4 сезон

9 сезон

Бесстыжие 9 сезон

Все сериалы

все сериалы на PB.wtf

RePack

FAR CRY 5
  

Сотня / The 100 / Сезон: 1 / Серии: 1-13 из 13 (Дин Уайт) [2014, фантастика, драма, триллер, BDRip 1080p] MVO [TVShows] pb.wtf

Сотня через торрент pb.wtf

Размер: 40.47 GB | Добавлен: 4 мес. 24 д. назад | Торрент скачан:4 раза
Скачать  

27-08-2019 17:51 Сотня Скачать торрент  

Сотня / The 100 Год выпуска: 2014
Страна: США
Жанр: Фантастика, драма, триллер
Продолжительность: ~00:42:00
Перевод: Профессиональный (многоголосый закадровый) | TVShows
Субтитры: Нет

Режиссеры: Дин Уайт

В ролях: Элиза Тейлор-Коттер, Мари Авгеропулос, Сачин Сахель, Линдси Морган, Женевьев Бюкнер, Ричард Хэрмон и др.

Описание: События в сериале начинают разворачиваться по прошествии девяносто семи лет после того как всю цивилизацию уничтожила страшная атомная война.
Высоко в космосе на орбите Земли летает большой космический корабль, именно здесь находятся те, кто выжил после страшной катастрофы. Они единственные кто пережил этот ужасный катаклизм который устроило человечество. Именно с этого последнего пристанища людей на Землю отправляют космический челнок на котором находятся сто малолетних преступников…



Качество: BDRip 1080p
Контейнер: MKV

Видео: MPEG-4 AVC, 1920x1080, 23.976 fps, ~9854 Kbps
Аудио 1: Русский, AC3, 48 КГц, 6 ch, 384 Kbps
Аудио 2: Английский, AAC, 48 КГц, 6 ch, 564 Kbps


Реклама: Отсутствует
скриншот  скриншот  скриншот  скриншот  
General
Unique ID                   : 160489836178830924351861898363302825 (0x1EE8C284E6F0BFC8B787540FA073A9)
Complete name               : E:\The.100.S01.1080p.TVShows\The.100.S01E01.1080p.TVShows.mkv
Format                      : Matroska
Format version              : Version 4 / Version 2
File size                   : 3.11 GiB
Duration                    : 41 min 16 s
Overall bit rate            : 10.8 Mb/s
Encoded date                : UTC 2019-07-29 09:50:49
Writing application         : mkvmerge v33.1.0 ('Primrose') 64-bit
Writing library             : libebml v1.3.7 + libmatroska v1.5.0

Video
ID                          : 1
Format                      : AVC
Format/Info                 : Advanced Video Codec
Format profile              : High@L4.1
Format settings             : CABAC / 4 Ref Frames
Format settings, CABAC      : Yes
Format settings, ReFrames   : 4 frames
Codec ID                    : V_MPEG4/ISO/AVC
Duration                    : 41 min 15 s
Bit rate                    : 9 854 kb/s
Width                       : 1 920 pixels
Height                      : 1 080 pixels
Display aspect ratio        : 16:9
Frame rate mode             : Constant
Frame rate                  : 23.976 FPS
Color space                 : YUV
Chroma subsampling          : 4:2:0
Bit depth                   : 8 bits
Scan type                   : Progressive
Bits/(Pixel*Frame)          : 0.198
Stream size                 : 2.84 GiB (91%)
Writing library             : x264 core 142 r2453 ea0ca51
Encoding settings           : cabac=1 / ref=4 / deblock=1:0:0 / analyse=0x3:0x133 / me=umh / subme=7 / psy=1 / psy_rd=1.00:0.00 / mixed_ref=1 / me_range=16 / chroma_me=1 / trellis=1 / 8x8dct=1 / cqm=0 / deadzone=21,11 / fast_pskip=0 / chroma_qp_offset=-2 / threads=18 / lookahead_threads=3 / sliced_threads=0 / nr=0 / decimate=1 / interlaced=0 / bluray_compat=0 / constrained_intra=0 / bframes=3 / b_pyramid=2 / b_adapt=1 / b_bias=0 / direct=1 / weightb=1 / open_gop=0 / weightp=2 / keyint=250 / keyint_min=23 / scenecut=40 / intra_refresh=0 / rc_lookahead=40 / rc=2pass / mbtree=1 / bitrate=9854 / ratetol=1.0 / qcomp=0.60 / qpmin=0 / qpmax=69 / qpstep=4 / cplxblur=20.0 / qblur=0.5 / ip_ratio=1.40 / aq=1:1.00
Language                    : English
Default                     : Yes
Forced                      : No

Audio #1
ID                          : 2
Format                      : AC-3
Format/Info                 : Audio Coding 3
Commercial name             : Dolby Digital
Codec ID                    : A_AC3
Duration                    : 41 min 16 s
Bit rate mode               : Constant
Bit rate                    : 384 kb/s
Channel(s)                  : 6 channels
Channel positions           : Front: L C R, Side: L R, LFE
Sampling rate               : 48.0 kHz
Frame rate                  : 31.250 FPS (1536 SPF)
Bit depth                   : 16 bits
Compression mode            : Lossy
Stream size                 : 113 MiB (4%)
Title                       : TVShows
Language                    : Russian
Service kind                : Complete Main
Default                     : Yes
Forced                      : Yes

Audio #2
ID                          : 3
Format                      : AAC
Format/Info                 : Advanced Audio Codec
Format profile              : LC
Codec ID                    : A_AAC-2
Duration                    : 41 min 16 s
Bit rate                    : 564 kb/s
Channel(s)                  : 6 channels
Channel positions           : Front: L C R, Side: L R, LFE
Sampling rate               : 48.0 kHz
Frame rate                  : 46.875 FPS (1024 SPF)
Compression mode            : Lossy
Stream size                 : 166 MiB (5%)
Title                       : Original
Language                    : English
Default                     : No
Forced                      : No
pb.wtf



Скачать Сотня через торрент http://i67.fastpic.ru/big/2014/0810/5f/04a344988240e7ff322d72b26fe7495f.png Скачать фильм Сотня через торрент бесплантно в хорошем качестве Описание: События в сериале начинают разворачиваться по прошествии девяносто семи лет после того как всю цивилизацию уничтожила страшная ... 10 10 3
Торрент: Зарегистрирован [2019-08-27 17:51] · скачан: 4 раз
Статус: √ проверено
Размер: 40.47 GB
Как cкачать? Как скачать Сотня через торрент | qTorrent

% Раздел Тема Автор DL S | L
Зарубежные сериалы [ 45.92 GB ] Сотня / The 100 / Сезон: 6 / Серии: 1-13 из 13 [2019 WEB-DL 1080p] MVO [LostFilm] bober100 Скачать
2 | 0
Зарубежные сериалы [ 25.41 GB ] Сотня / The 100 / Сезон: 6 / Серии: 1-13 из 13 [2019 WEBRip 720p] MVO [LostFilm] bober100 Скачать
1 | 0
Зарубежные сериалы [ 29.22 GB ] Сотня / The 100 / Сезон: 6 / Серии: 1-13 из 13 [2019 WEB-DL 1080p] MVO [AlexFilm] bober100 Скачать
1 | 0
Зарубежные сериалы [ 46.65 GB ] Сотня / The 100 / Сезон: 6 / Серии: 1-13 из 13 [2019 WEB-DL 1080p] [MVO] killermax2013 Скачать
1 | 0
Зарубежные сериалы [ 12.14 GB ] Сотня / The 100 / Сезон: 6 / Серии: 1-13 из 13 [2019 WEBRip 720p] MVO [Jaskier] bober100 Скачать
1 | 0
Зарубежные сериалы [ 7.1 GB ] Сотня / The 100 / Сезон: 6 / Серии: 1-13 из 13 [2019 WEBRip] MVO [Jaskier] bober100 Скачать
1 | 0
Зарубежные сериалы [ 15.01 GB ] Сотня / The 100 / Сезон: 6 / Серии: 1-13 из 13 [2019 WEBRip 720p] MVO [AlexFilm] bober100 Скачать
2 | 0

28-11-2019 20:33  

Отключить всю рекламу на сайте

    Дорогой пользователь! Огромная просьба, поблагодарите релизера, оцените раздачу и оставьте свои комментарий, если Вы скачали Сотня через торрент бесплатно! Внесите свою лепту в развитие PiratBit!
    Комментировать посты могут только пользователи прошедшие не сложную регистрацию
    Показать сообщения:    

    Сотня через торрент
    Скачать бесплатно Сотня
    Сотня скачать торрент
    Сотня смотреть онлайн
    Cкачать фильм Сотня бесплатно
    Сотня скачать торрент в хорошем качестве
    Сотня смотреть онлайн бесплатно в хорошем качестве


    Вы не можете начинать темы
    Вы не можете отвечать на сообщения
    Вы не можете редактировать свои сообщения
    Вы не можете удалять свои сообщения
    Вы не можете голосовать в опросах
    Вы не можете прикреплять файлы к сообщениям
    Вы можете скачивать файлы