Доктор Стрэндж

Лицензия

Добыча

Дубляж

Дом дракона

1 сезон

Тор

Дубляж

В эфире

Дубляж

Там, где раки поют

MVO

Властелин колец

1 сезон

Deluxe

pack

Рекомендуем

30

Пиратка

ВАЖНО

ВАЖНО

Ghostwire

Пиратка

jed

RePack

nioh2

RePack

RDR2

RePack

NEED FOR SPEED™ PAYBACK

RePack

скачать торрент

Кинопоиск HD

Острые козырьки 6 сезон

6 сезон

FAR CRY 6

RePack

скачать торрент

Лицензия

скачать торрент

MVO

1

1 сезон

скачать торрент

1 сезон

скачать торрент

Лицензия

  

Волшебник / Сезон: 1 / Серии: 1-8 из 8 (Михаил Хлебородов) [2019, Детектив, комедия, HDTVRip 720p]

Волшебник через торрент pb.wtf

Размер: 11.73 GB | Добавлен: 3 года 3 мес. назад | Торрент скачан:66 раз
Смотреть онлайн | Скачать   

27-08-2019 19:19 Волшебник Скачать торрент  

Волшебник
Год выпуска: 2019
Страна: Россия
Жанр: Детектив, комедия
Продолжительность: ~ 00:52:00
Субтитры: отсутствуют

Режиссер: Михаил Хлебородов



В ролях: Юрий Чурсин, Анна Старшенбаум, Дмитрий Хрусталёв, Александр Голубков, Юлианна Караулова, Дмитрий Ефремов, Наталья Земцова, Вера Шпак, Виктор Цекало, Александр Ефимов, Даниил Эйдлин, Дарья Сивова, Аполлинария Муравьёва, Александра Богданова

Описание: Двоих парней, Андрея Гончарова и Лешу Дятлова, связывает многолетняя мужская дружба. Они размышляли на тему будущего и придумывали различные способы, как стать богатыми и знаменитыми. Годы шли, и теперь подростки стали взрослыми мужчинами. Они сумели придумать прибыльное дело, чем сейчас и занимаются.

Качество: HDTVRip 720p
Формат: MKV

Видео: 1280х720 (16:9), 25 fps, AVC MPEG-4 (x264), [email protected] ~ 4000 kbps , 0.152 bit/pixel
Аудио: 48 kHz, AC3, 2/0 (L,R) ch, ~192.00 kbps avg g
скриншот  скриншот  скриншот  скриншот  

Общее
Уникальный идентификатор : 176517749229803517234576880238266071176 (0x84CC14F71EB69A3A8D7A3EC19552B888)
Полное имя : C:\Volshebnik.2019.HDTVRip.(720p).ExKinoRay\Volshebnik.(01.seriya).2019.HDTVRip.(720p).ExKinoRay.mkv
Формат : Matroska
Версия формата : Version 4
Размер файла : 1,52 Гбайт
Продолжительность : 51 м. 49 с.
Общий поток : 4194 Кбит/сек
Дата кодирования : UTC 2019-08-27 16:14:35
Программа кодирования : mkvmerge v6.9.1 ('Blue Panther') 64bit built on Apr 18 2014 18:23:38
Библиотека кодирования : libebml v1.3.0 + libmatroska v1.4.1

Видео
Идентификатор : 1
Формат : AVC
Формат/Информация : Advanced Video Codec
Профиль формата : [email protected]
Настройки формата : CABAC / 9 Ref Frames
Параметр CABAC формата : Да
Параметр RefFrames формата : 9 кадров
Идентификатор кодека : V_MPEG4/ISO/AVC
Продолжительность : 51 м. 49 с.
Битрейт : 4000 Кбит/сек
Ширина : 1280 пикселей
Высота : 720 пикселей
Соотношение сторон : 16:9
Режим частоты кадров : Постоянный
Частота кадров : 25,000 кадров/сек
Цветовое пространство : YUV
Субдискретизация насыщенности : 4:2:0
Битовая глубина : 8 бит
Тип развёртки : Прогрессивная
Бит/(Пиксели*Кадры) : 0.174
Размер потока : 1,42 Гбайт (93%)
Библиотека кодирования : x264 core 146 r2538 121396c
Настройки программы : cabac=1 / ref=9 / deblock=1:-3:-3 / analyse=0x3:0x113 / me=umh / subme=11 / psy=1 / psy_rd=1.00:0.20 / mixed_ref=1 / me_range=32 / chroma_me=1 / trellis=2 / 8x8dct=1 / cqm=0 / deadzone=21,11 / fast_pskip=1 / chroma_qp_offset=-3 / threads=24 / lookahead_threads=10 / sliced_threads=0 / nr=0 / decimate=0 / interlaced=0 / bluray_compat=0 / constrained_intra=0 / bframes=11 / b_pyramid=2 / b_adapt=2 / b_bias=0 / direct=3 / weightb=1 / open_gop=0 / weightp=2 / keyint=250 / keyint_min=25 / scenecut=40 / intra_refresh=0 / rc_lookahead=60 / rc=2pass / mbtree=1 / bitrate=4000 / ratetol=1.0 / qcomp=0.60 / qpmin=0 / qpmax=69 / qpstep=4 / cplxblur=20.0 / qblur=0.5 / vbv_maxrate=14000 / vbv_bufsize=14000 / nal_hrd=none / filler=0 / ip_ratio=1.40 / aq=3:1.40
Default : Нет
Forced : Нет
Цветовой диапазон : Limited
Основные цвета : BT.709
Характеристики трансфера : BT.709
Коэффициенты матрицы : BT.709

Аудио
Идентификатор : 2
Формат : AC-3
Формат/Информация : Audio Coding 3
Коммерческое название : Dolby Digital
Идентификатор кодека : A_AC3
Продолжительность : 51 м. 49 с.
Вид битрейта : Постоянный
Битрейт : 192 Кбит/сек
Каналы : 6 каналов
ChannelLayout : L R C LFE Ls Rs
Частота : 48,0 КГц
Частота кадров : 31,250 кадров/сек (1536 SPF)
Битовая глубина : 16 бит
Метод сжатия : С потерями
Размер потока : 71,2 Мбайт (5%)
Язык : Russian
ServiceKind/String : Complete Main
Default : Да
Forced : Да

Внимание! Раздача ведётся путём добавления новых серий; при каждом добавлении создfётся новый торрент. Чтобы начать докачку новой серии, пользователям необходимо сделать следующее: (1) остановить скачивание, (2) удалить старый торрент у себя из клиента (старые серии удалять не надо), (3) скачать новый торрент и запустить его у себя в клиенте вместо старого, при этом указать клиенту путь в старую папку куда и должно происходить скачивание новых серий.

Ваш клиент при этом должен произвести хеширование (проверку) старой папки (если не производит сам - помогите ему сделать это), и будет докачивать только те серии которых у вас ещё нет. Старые серии при этом не удаляются, а продолжают раздаваться!

Eсли вы уже удалили старые серии, то предотвратить повторную закачку старых серий можно, отжав галочку в соответсвующих местах при запуске нового торрента.



Скачать Волшебник через торрент https://i90.fastpic.ru/big/2019/0826/66/2abcd9f67a007cf1ca43c0b4b5fb5266.jpg Скачать, смотреть онлайн Волшебник бесплантно в хорошем качестве Описание: Двоих парней, Андрея Гончарова и Лешу Дятлова, связывает многолетняя мужская дружба. Они размышляли на тему будущего и ... 10 10 5
Торрент: Зарегистрирован [2019-08-30 17:37] · скачан: 66 раз
Статус: √ проверено
Размер: 11.73 GB
Как cкачать? Как скачать Волшебник через торрент | UTorrent

% Раздел Тема Автор DL S | L
Наши сериалы [ 5.02 GB ] Волшебник / Серии: 1-8 из 8 | | SATRip-AVC aleksan55 Скачать
1 | 0
Наши сериалы [ 6.14 GB ] Волшебник / Сезон: 1 / Серии: 1-8 из 8 | | HDTVRip-AVC bober100 Скачать
1 | 0
Наши сериалы [ 5.04 GB ] Волшебник / Сезон: 1 / Серии: 1-8 из 8 | | HDTVRip bober100 Скачать
1 | 0
Наши сериалы [ 16.58 GB ] Волшебник / Сезон: 1 / Серии: 1-8 из 8 | | HDTV 1080i bober100 Скачать
1 | 0
Наши сериалы [ 4.69 GB ] Волшебник / Сезон: 1 / Серии: 1-8 из 8 | | SATRip bober100 Скачать
1 | 0

28-11-2019 20:33  


Отключить вcю реклaмy на сайте, в т.ч. и в плеере онлайн просмотра!

    Дорогой пользователь! Огромная просьба, поблагодарите релизера, оцените раздачу и оставьте свои комментарий, если Вы скачали Волшебник через торрент бесплатно!!
    Комментировать посты могут только пользователи прошедшие не сложную регистрацию
    Показать сообщения:    


    Волшебник через торрент
    Скачать бесплатно Волшебник
    Волшебник скачать торрент
    Волшебник смотреть онлайн
    Cкачать фильм Волшебник бесплатно
    Волшебник скачать торрент в хорошем качестве
    Волшебник смотреть онлайн бесплатно в хорошем качестве
    Вы не можете начинать темы
    Вы не можете отвечать на сообщения
    Вы не можете редактировать свои сообщения
    Вы не можете удалять свои сообщения
    Вы не можете голосовать в опросах
    Вы не можете прикреплять файлы к сообщениям
    Вы можете скачивать файлы
    Волшебник / Сезон: 1 / Серии: 1-8 из 8 [2019, Детектив, комедия, HDTVRip 720p] смотреть онлайн, скачать торрент picoco.icu