новый адрес
Ссылка на приватное зеркало всего за 1$. Внимание количество ограничено!!!

iTunes

1+1

iTunes

мы

WEB-DL

1

iTunes

Чернобыль

iTunes

Ральф против интернета

Лицензия

ПШазам

Лицензия

Оно 2

Лицензия

30
pack

Вам бонус

ВАЖНО

!!Акция!!

Alien_RageХит недели

RePack

Resident Evil 21

ИГРА 18+

pack

RePack

jed

!!Акция!!

Alien_Rage

RePack

fifa19

RePack

Assassins Creed: Odyssey

RePack

NEED FOR SPEED™ PAYBACK

3 сезон

9 сезон

Бесстыжие 9 сезон

Все сериалы

все сериалы на PB.wtf

RePack

FAR CRY 5
Ребята, катастрофически не хватает 1900р. для оплаты серверов за Октябрь (всвязи с блокировками трафик упал в 3 раза), 1-2р., выручайте.
  

Королева сердец / Dronningen (Май эль-Туки) [2019, Триллер, WEB-DLRip-AVC] MVO [iTunes] - ExKinoRay pb.wtf

Королева сердец через торрент pb.wtf

Раздают: 17 [ 2 KB/s ]
Размер: 2.09 GB | Добавлен: 3 мес. 10 д. назад | Торрент скачан:285 раз
Скачать  

28-08-2019 02:57 Королева сердец Скачать торрент  

Информация о фильме
Название: Королева сердец
Оригинальное название: Dronningen
Год выпуска: 2019
Жанр: Триллер
Режиссер: Май эль-Туки
В ролях: Трине Дюрхольм, Густав Линд, Магнус Креппер, Лив Эсмор Даннеманн, Силья Эсмор Даннеманн, Стине Гюльденкерне, Пребен Кристенсен, Фредерикке Даль Хансен, Элла Солгор, Карла Филип Родер

Описание: Анна — успешный юрист, идеальная жена, заботливая мать. Однажды в дом приезжает Густав — сын мужа от первого брака. Между Анной и Густавом вспыхивает запретная страсть. Искушение становится наваждением. Ничто уже не будет прежним.

rating

Страна: Дания, Швеция
Студия: Nordisk Film Production, Det Danske Filminstitut, Svenska Filminstitutet
Продолжительность: 02:06:05
Перевод: Профессиональный (многоголосый, закадровый) | iTunes

Формат: MKV
Качество: WEB-DLRip-AVC
Видео: MPEG-4 AVC, 1024x428 (2.40:1), 24.000 fps, 1993 Kbps, 0.189 bit/pixel
Аудио : 48 kHz, AC3, 5.1, 384 Kbps | iTunes | RUS |
General
Unique ID : 210224515298512352656985648871615571253 (0x9E27C4D7022EC913B392BB230E292535)
Complete name : F:\Dronningen.2019.iTunes.WEB-DLRip.AVC.ExKinoRay.mkv
Format : Matroska
Format version : Version 2
File size : 2.09 GiB
Duration : 2 h 6 min
Overall bit rate : 2 378 kb/s
Movie name : Dronningen 2019 from ExKinoRay
Encoded date : UTC 2019-08-28 01:33:46
Writing application : mkvmerge v5.6.0 ('Kenya Kane') built on May 27 2012 16:44:04
Writing library : libebml v1.2.3 + libmatroska v1.3.0

Video
ID : 1
Format : AVC
Format/Info : Advanced Video Codec
Format profile : High@L4.1
Format settings, CABAC : Yes
Format settings, ReFrames : 11 frames
Codec ID : V_MPEG4/ISO/AVC
Duration : 2 h 6 min
Bit rate : 1 993 kb/s
Width : 1 024 pixels
Height : 428 pixels
Display aspect ratio : 2.40:1
Frame rate mode : Constant
Frame rate : 24.000 FPS
Color space : YUV
Chroma subsampling : 4:2:0
Bit depth : 8 bits
Scan type : Progressive
Bits/(Pixel*Frame) : 0.189
Stream size : 1.71 GiB (82%)
Title : Enigma
Writing library : x264 core 152 r2851 ba24899
Encoding settings : cabac=1 / ref=11 / deblock=1:-3:-3 / analyse=0x3:0x113 / me=umh / subme=10 / psy=1 / psy_rd=1.00:0.00 / mixed_ref=1 / me_range=32 / chroma_me=1 / trellis=2 / 8x8dct=1 / cqm=0 / deadzone=21,11 / fast_pskip=0 / chroma_qp_offset=-2 / threads=12 / lookahead_threads=2 / sliced_threads=0 / nr=0 / decimate=0 / interlaced=0 / bluray_compat=0 / constrained_intra=0 / bframes=9 / b_pyramid=2 / b_adapt=2 / b_bias=0 / direct=3 / weightb=1 / open_gop=0 / weightp=2 / keyint=240 / keyint_min=24 / scenecut=40 / intra_refresh=0 / rc=2pass / mbtree=0 / bitrate=1993 / ratetol=1.0 / qcomp=0.60 / qpmin=0 / qpmax=51 / qpstep=4 / cplxblur=20.0 / qblur=0.5 / ip_ratio=1.30 / pb_ratio=1.20 / aq=3:0.90
Language : English
Default : Yes
Forced : No
Color range : Limited
Color primaries : BT.709
Transfer characteristics : BT.709
Matrix coefficients : BT.709

Audio
ID : 2
Format : AC-3
Format/Info : Audio Coding 3
Mode extension : CM (complete main)
Format settings, Endianness : Big
Codec ID : A_AC3
Duration : 2 h 6 min
Bit rate mode : Constant
Bit rate : 384 kb/s
Channel(s) : 6 channels
Channel positions : Front: L C R, Side: L R, LFE
Sampling rate : 48.0 kHz
Frame rate : 31.250 FPS (1536 spf)
Compression mode : Lossy
Stream size : 346 MiB (16%)
Title : iTunes
Language : Russian
Default : Yes
Forced : No

Menu
00:00:00.000 : en:Глава 1
00:07:57.208 : en:Глава 2
00:14:55.458 : en:Глава 3
00:21:56.291 : en:Глава 4
00:30:58.749 : en:Глава 5
00:40:48.957 : en:Глава 6
00:48:58.457 : en:Глава 7
00:56:17.415 : en:Глава 8
01:03:51.831 : en:Глава 9
01:10:48.247 : en:Глава 10
01:18:34.122 : en:Глава 11
01:26:59.538 : en:Глава 12
01:35:08.413 : en:Глава 13
01:41:39.788 : en:Глава 14
01:49:04.288 : en:Глава 15
01:55:11.454 : en:Глава 16


Релиз от:

Автор релиза: pb.wtf



Скачать Королева сердец через торрент https://c.radikal.ru/c10/1908/11/971423ddd9d8.png Скачать фильм Королева сердец через торрент бесплантно в хорошем качестве Описание: Анна — успешный юрист, идеальная жена, заботливая мать. Однажды в дом приезжает Густав — сын мужа от первого брака. Между Анной ... 10 10 5
Info! Золотая раздача, скачанное не засчитывается.
Торрент: Зарегистрирован [2019-08-28 02:57] · скачан: 285 раз
Статус: √ проверено
Размер: 2.09 GB
Как cкачать? Как скачать Королева сердец через торрент | qTorrent

28-11-2019 20:33  

Отключить всю рекламу на сайте

28-08-2019 17:35 Королева сердец Скачать торрент  

Срамота.pb.wtf



    Дорогой пользователь! Огромная просьба, поблагодарите релизера, оцените раздачу и оставьте свои комментарий, если Вы скачали Королева сердец через торрент бесплатно! Внесите свою лепту в развитие PiratBit!
    Комментировать посты могут только пользователи прошедшие не сложную регистрацию
    Показать сообщения:    

    Королева сердец через торрент
    Скачать бесплатно Королева сердец
    Королева сердец скачать торрент
    Королева сердец смотреть онлайн
    Cкачать фильм Королева сердец бесплатно
    Королева сердец скачать торрент в хорошем качестве
    Королева сердец смотреть онлайн бесплатно в хорошем качестве


    Вы не можете начинать темы
    Вы не можете отвечать на сообщения
    Вы не можете редактировать свои сообщения
    Вы не можете удалять свои сообщения
    Вы не можете голосовать в опросах
    Вы не можете прикреплять файлы к сообщениям
    Вы можете скачивать файлы