Ссылка на приватное зеркало нашего сайта всего за 1$. Внимание количество ограничено!!!

2 сезон

iTunes

1 сезон

1

iTunes

iTunes

iTunes

1 сезон

RePack

30

ИГРА 18+

pack

ВАЖНО

!!Акция!!

Alien_RageХит недели

RePack

MK11
pack

Забери бонус

RePack

jed

!!Акция!!

Alien_Rage

RePack

fifa19

RePack

Assassins Creed: Odyssey

RePack

NEED FOR SPEED™ PAYBACK

4 сезон

9 сезон

Бесстыжие 9 сезон

Все сериалы

все сериалы на PB.wtf

RePack

FAR CRY 5
  

Излучины Миссури / The Missouri Breaks (Артур Пенн) [1976, драма, вестерн, BDRip 1080p by msltel] 2 x DVO | US Transfer pb.wtf

Излучины Миссури через торрент pb.wtf

Размер: 14.47 GB | Добавлен: 1 год 1 мес. назад | Торрент скачан:2 раза
Скачать  

28-08-2019 06:49 Излучины Миссури Скачать торрент  

Название: Излучины Миссури
Оригинальное название: The Missouri Breaks
Год выпуска: 1976
Страна: США
Жанр: драма, вестерн
Продолжительность: 02:06:21
Перевод: профессиональный двухголосый

Режиссер: Артур Пенн
В ролях: Марлон Брандо, Джек Николсон, Рэнди Куэйд, Кэтлин Ллойд, Фредерик Форрест, Гарри Дин Стэнтон, Джон МакЛиам, Джон П. Райан, Сэм Гилман, Стив Фрэнкен

О фильме: Дэвид Брэкстон много лет владеет ранчо на реке Миссури. Под его управлением когда-то дикие и бесплодные земли со временем стали давать богатые урожаи. Но благополучная жизнь фермера привлекает внимание известного преступника-конокрада. Когда в опасности оказывается не только хозяйство фермера, но и его семейная жизнь, Брэкстон наносит ответный удар. Он нанимает для избавления от одного преступника другого, настоящего бандита. В результате всё становится только хуже...



Качество: BDRip 1080p
Формат: MKV
Видео: MPEG-4 AVC, 14.5 Mбит/с, 1920x1040, 23.976 кадр/с
Аудио 1: русский, AC3, 192 kbps, 2 ch, 48 kHz [закадровый двухголосый, НТВ+ ( Ольга Плетнёва и Михаил Тихонов, по переводу Юрия Сербина)]
Аудио 2: русский, AC3, 192 kbps, 2 ch, 48 kHz [закадровый двухголосый, СОЮЗ Видео (VHS)]
Аудио 3: английский, DTS, 1509 kbps, 2 ch, 48 kHz [оригинал]
Субтитры: английские
Главы/чаптеры
Общее
Уникальный идентификатор : 181611017570116016682348688687295506949 (0x88A1027B7EDB3D05B1C250831DDA2A05)
Полное имя : D:\Video\Излучины Миссури.1976.US Transfer.BDRip 1080p by msltel.mkv
Формат : Matroska
Версия формата : Version 4
Размер файла : 14,5 Гбайт
Продолжительность : 2 ч. 6 м.
Общий поток : 16,4 Мбит/сек
Название фильма : Rip by msltel
Дата кодирования : UTC 2019-08-28 05:52:42
Программа кодирования : mkvmerge v8.2.0 ('World of Adventure') 64bit
Библиотека кодирования : libebml v1.3.1 + libmatroska v1.4.2

Видео
Идентификатор : 1
Формат : AVC
Формат/Информация : Advanced Video Codec
Профиль формата : High@L4.1
Настройки формата : CABAC / 4 Ref Frames
Параметр CABAC формата : Да
Параметр RefFrames формата : 4 кадра
Идентификатор кодека : V_MPEG4/ISO/AVC
Продолжительность : 2 ч. 6 м.
Битрейт : 14,5 Мбит/сек
Ширина : 1920 пикселей
Высота : 1040 пикселей
Соотношение сторон : 1,85:1
Режим частоты кадров : Постоянный
Частота кадров : 23,976 (24000/1001) кадра/сек
Цветовое пространство : YUV
Субдискретизация насыщенности : 4:2:0
Битовая глубина : 8 бит
Тип развёртки : Прогрессивная
Бит/(Пиксели*Кадры) : 0.303
Размер потока : 12,8 Гбайт (88%)
Библиотека кодирования : x264 core 157 r2935 545de2f
Настройки программы : cabac=1 / ref=4 / deblock=1:-2:-2 / analyse=0x3:0x113 / me=umh / subme=11 / psy=1 / psy_rd=1.00:0.15 / mixed_ref=1 / me_range=32 / chroma_me=1 / trellis=2 / 8x8dct=1 / cqm=0 / deadzone=21,11 / fast_pskip=0 / chroma_qp_offset=-3 / threads=6 / lookahead_threads=1 / sliced_threads=0 / nr=0 / decimate=1 / interlaced=0 / bluray_compat=0 / constrained_intra=0 / bframes=11 / b_pyramid=2 / b_adapt=2 / b_bias=0 / direct=1 / weightb=1 / open_gop=0 / weightp=2 / keyint=230 / keyint_min=23 / scenecut=40 / intra_refresh=0 / rc_lookahead=40 / rc=crf / mbtree=1 / crf=19.5 / qcomp=0.60 / qpmin=0 / qpmax=69 / qpstep=4 / vbv_maxrate=50000 / vbv_bufsize=62500 / crf_max=0.0 / nal_hrd=none / filler=0 / ip_ratio=1.40 / aq=1:1.00
Язык : English
Default : Да
Forced : Нет

Аудио #1
Идентификатор : 2
Формат : AC-3
Формат/Информация : Audio Coding 3
Коммерческое название : Dolby Digital
Идентификатор кодека : A_AC3
Продолжительность : 2 ч. 6 м.
Вид битрейта : Постоянный
Битрейт : 192 Кбит/сек
Каналы : 2 канала
ChannelLayout : L R
Частота : 48,0 КГц
Частота кадров : 31,250 кадров/сек (1536 SPF)
Битовая глубина : 16 бит
Метод сжатия : С потерями
Размер потока : 173 Мбайт (1%)
Заголовок : DVO НТВ+ ( Ольга Плетнёва и Михаил Тихонов, по переводу Юрия Сербина)
Язык : Russian
ServiceKind/String : Complete Main
Default : Да
Forced : Нет

Аудио #2
Идентификатор : 3
Формат : AC-3
Формат/Информация : Audio Coding 3
Коммерческое название : Dolby Digital
Идентификатор кодека : A_AC3
Продолжительность : 2 ч. 6 м.
Вид битрейта : Постоянный
Битрейт : 192 Кбит/сек
Каналы : 2 канала
ChannelLayout : L R
Частота : 48,0 КГц
Частота кадров : 31,250 кадров/сек (1536 SPF)
Битовая глубина : 16 бит
Метод сжатия : С потерями
Размер потока : 174 Мбайт (1%)
Заголовок : DVO СОЮЗ Видео (VHS)
Язык : Russian
ServiceKind/String : Complete Main
Default : Нет
Forced : Нет

Аудио #3
Идентификатор : 4
Формат : DTS
Формат/Информация : Digital Theater Systems
Идентификатор кодека : A_DTS
Продолжительность : 2 ч. 6 м.
Вид битрейта : Постоянный
Битрейт : 1509 Кбит/сек
Каналы : 2 канала
ChannelLayout : L R
Частота : 48,0 КГц
Частота кадров : 93,750 кадра/сек (512 SPF)
Битовая глубина : 16 бит
Метод сжатия : С потерями
Размер потока : 1,33 Гбайт (9%)
Заголовок : original
Язык : English
Default : Нет
Forced : Нет

Текст
Идентификатор : 5
Формат : UTF-8
Идентификатор кодека : S_TEXT/UTF8
Идентификатор кодека/Информация : UTF-8 Plain Text
Продолжительность : 2 ч. 0 м.
Битрейт : 53 бит/сек
ElementCount : 1203
Размер потока : 46,8 Кбайт (0%)
Заголовок : английские
Язык : English
Default : Нет
Forced : Нет

Меню
00:00:00.000 : en:Chapter 1
00:17:05.650 : en:Chapter 2
00:34:55.969 : en:Chapter 3
00:57:11.844 : en:Chapter 4
01:14:14.158 : en:Chapter 5
01:28:45.779 : en:Chapter 6
01:43:54.145 : en:Chapter 7
01:52:03.341 : en:Chapter 8
pb.wtf



Скачать Излучины Миссури через торрент https://b.radikal.ru/b19/1908/d7/f4a315e062c6.jpg Скачать фильм Излучины Миссури через торрент бесплантно в хорошем качестве О фильме: Дэвид Брэкстон много лет владеет ранчо на реке Миссури. Под его управлением когда-то дикие и бесплодные земли со временем стали ... 5 10 1
Info! Золотая раздача, скачанное не засчитывается.
Торрент: Зарегистрирован [2019-08-28 06:49] · скачан: 2 раз
Статус: √ проверено
Размер: 14.47 GB
Как cкачать? Как скачать Излучины Миссури через торрент | qTorrent

% Раздел Тема Автор DL S | L
Классика зарубежного кино [ 6 GB ] Излучины Миссури / The Missouri Breaks [1976 BDRip 720p by msltel] 2 x DVO | US Transfer msltel Скачать
1 | 0

28-11-2019 20:33  

Отключить всю рекламу на сайте

28-08-2019 07:11 Излучины Миссури Скачать торрент  

Топик был перенесен из форума Фильмы [HD 720p, 1080p] (Хороший звук DUB, MVO) в форум Классика зарубежного кино


bober100pb.wtf



    Дорогой пользователь! Огромная просьба, поблагодарите релизера, оцените раздачу и оставьте свои комментарий, если Вы скачали Излучины Миссури через торрент бесплатно! Внесите свою лепту в развитие PiratBit!
    Комментировать посты могут только пользователи прошедшие не сложную регистрацию
    Показать сообщения:    

    Излучины Миссури через торрент
    Скачать бесплатно Излучины Миссури
    Излучины Миссури скачать торрент
    Излучины Миссури смотреть онлайн
    Cкачать фильм Излучины Миссури бесплатно
    Излучины Миссури скачать торрент в хорошем качестве
    Излучины Миссури смотреть онлайн бесплатно в хорошем качестве


    Вы не можете начинать темы
    Вы не можете отвечать на сообщения
    Вы не можете редактировать свои сообщения
    Вы не можете удалять свои сообщения
    Вы не можете голосовать в опросах
    Вы не можете прикреплять файлы к сообщениям
    Вы можете скачивать файлы