новый адрес
Ссылка на приватное зеркало всего за 1$. Внимание количество ограничено!!!

iTunes

1+1

iTunes

мы

iTunes

1

iTunes

Чернобыль

iTunes

Ральф против интернета

Лицензия

ПШазам

Лицензия

Оно 2

Лицензия

30
pack

Вам бонус

ВАЖНО

!!Акция!!

Alien_RageХит недели

RePack

Resident Evil 21

ИГРА 18+

pack

RePack

jed

!!Акция!!

Alien_Rage

RePack

fifa19

RePack

Assassins Creed: Odyssey

RePack

NEED FOR SPEED™ PAYBACK

3 сезон

9 сезон

Бесстыжие 9 сезон

Все сериалы

все сериалы на PB.wtf

RePack

FAR CRY 5
Ребята, катастрофически не хватает 1900р. для оплаты серверов за Октябрь (всвязи с блокировками трафик упал в 3 раза), 1-2р., выручайте.
  

Хроника одного дня (Витаутас Жалакявичюс) [1963, СССР, драма, SATRip от AVP Studio] pb.wtf

Хроника одного дня через торрент pb.wtf

Раздают: 1 [ 0 KB/s ]
Размер: 1.09 GB | Добавлен: 2 мес. 25 д. назад | Торрент скачан:3 раза
Скачать  

28-08-2019 07:26 Хроника одного дня Скачать торрент  

Хроника одного дня
Страна: СССР
Производство: Литовская к/ст

Жанр: драма
Год выпуска: 1963
Продолжительность: 01:17:04

Перевод: Не требуется
Cубтитры: нет
Оригинальная аудиодорожка: русский

Режиссер: Витаутас Жалакявичюс

В ролях:
Бронюс Бабкаускас, Иван Дмитриев, Альгимантас Масюлис, Эльвира Жебертавичюте, Игорь Озеров, Донатас Банионис, Эугения Шулгайте, Нийоле Викирайте, Хенрикас Паулаускас...
Об актёрах подробней

Описание:
Герои фильма — старый коммунист, скромный служащий Римша и молодой учёный Венцкус. Впервые они сталкиваются в суде, где Римша — народный заседатель, а Венцкус выступает в качестве единственного свидетеля по делу об убийстве. Свидетель не внёс ясности в дело, но от подозрений полностью освобождён. Однако Римша не понимает, почему свидетель не попытался предотвратить убийство, и убеждён в его виновности…

Исходник: DVB
Качество видео: SATRip
Формат видео: AVI

Видео: 704x528 (4:3), 25,000 кадров/сек, XviD ~ 1823 kbps avg, 0.196 bit/pixel
Аудио: 48 kHz, Dolby Digital AC3 2.0, 192 kbps

Раздача от:
Общее
Полное имя : Hronika.odnogo.dnya.1963.SATRip_[New-team]_by_AVP_Studio.avi
Формат : AVI
Формат/Информация : Audio Video Interleave
Размер файла : 1,09 Гбайт
Продолжительность : 1 ч. 17 м.
Общий поток : 2025 Кбит/сек
Программа кодирования : VirtualDubMod 1.5.10.3 | www.virtualdub-fr.org || (build 2550/release)
Библиотека кодирования : VirtualDubMod build 2550/release

Видео
Идентификатор : 0
Формат : MPEG-4 Visual
Профиль формата : Advanced Simple@L5
Настройки формата : BVOP1 / Custom Matrix
Параметр BVOP формата : 1
Параметр QPel формата : Нет
Параметр GMC формата : Без точки перехода
Параметр матрицы формата : Выборочная
Идентификатор кодека : XVID
Идентификатор кодека/Подсказка : XviD
Продолжительность : 1 ч. 17 м.
Битрейт : 1823 Кбит/сек
Ширина : 704 пикселя
Высота : 528 пикселей
Соотношение сторон : 4:3
Частота кадров : 25,000 кадров/сек
Цветовое пространство : YUV
Субдискретизация насыщенности : 4:2:0
Битовая глубина : 8 бит
Тип развёртки : Прогрессивная
Метод сжатия : С потерями
Бит/(Пиксели*Кадры) : 0.196
Размер потока : 1005 Мбайт (90%)
Библиотека кодирования : XviD 73

Аудио
Идентификатор : 1
Формат : AC-3
Формат/Информация : Audio Coding 3
Коммерческое название : Dolby Digital
Идентификатор кодека : 2000
Продолжительность : 1 ч. 17 м.
Вид битрейта : Постоянный
Битрейт : 192 Кбит/сек
Каналы : 2 канала
ChannelLayout : L R
Частота : 48,0 КГц
Частота кадров : 31,250 кадров/сек (1536 SPF)
Битовая глубина : 16 бит
Метод сжатия : С потерями
Размер потока : 106 Мбайт (9%)
Выравнивание : Разделение по промежуткам
Продолжительность промежутка : 40 мс. (1,00 видеокадр)
Время предзагрузки промежутка : 500 мс.
pb.wtf



Скачать Хроника одного дня через торрент http://picplus.ru/img/1908/28/cfc7824a.png Скачать фильм Хроника одного дня через торрент бесплантно в хорошем качестве Описание:Герои фильма — старый коммунист, скромный служащий Римша и молодой учёный Венцкус. Впервые они сталкиваются в суде, где Римша — ... 5 10 1
Торрент: Зарегистрирован [2019-08-28 07:26] · скачан: 3 раз
Статус: √ проверено
Размер: 1.09 GB
Как cкачать? Как скачать Хроника одного дня через торрент | qTorrent

% Раздел Тема Автор DL S | L
Кино СССР [ 1.09 GB ] Хроника одного дня [1963 СССР SATRip-AVC от AVP Studio] AVP Studio Скачать
2 | 0
    Дорогой пользователь! Огромная просьба, поблагодарите релизера, оцените раздачу и оставьте свои комментарий, если Вы скачали Хроника одного дня через торрент бесплатно! Внесите свою лепту в развитие PiratBit!
    Комментировать посты могут только пользователи прошедшие не сложную регистрацию
    Показать сообщения:    

    Хроника одного дня через торрент
    Скачать бесплатно Хроника одного дня
    Хроника одного дня скачать торрент
    Хроника одного дня смотреть онлайн
    Cкачать фильм Хроника одного дня бесплатно
    Хроника одного дня скачать торрент в хорошем качестве
    Хроника одного дня смотреть онлайн бесплатно в хорошем качестве


    Вы не можете начинать темы
    Вы не можете отвечать на сообщения
    Вы не можете редактировать свои сообщения
    Вы не можете удалять свои сообщения
    Вы не можете голосовать в опросах
    Вы не можете прикреплять файлы к сообщениям
    Вы можете скачивать файлы