Ссылка на приватное зеркало нашего сайта всего за 1$. Внимание количество ограничено!!!

2 сезон

iTunes

1 сезон

1

iTunes

iTunes

iTunes

1 сезон

RePack

30

ИГРА 18+

pack

ВАЖНО

!!Акция!!

Alien_RageХит недели

RePack

MK11
pack

Забери бонус

RePack

jed

!!Акция!!

Alien_Rage

RePack

fifa19

RePack

Assassins Creed: Odyssey

RePack

NEED FOR SPEED™ PAYBACK

4 сезон

9 сезон

Бесстыжие 9 сезон

Все сериалы

все сериалы на PB.wtf

RePack

FAR CRY 5
  

Срок давности / Серии: 1-4 из 4 (Максим Демченко) [2017, Детектив, мелодрама, HDTV 1080i] pb.wtf

Срок давности через торрент pb.wtf

Размер: 12.34 GB | Добавлен: 1 год 1 мес. назад | Торрент скачан:14 раз
Скачать  

28-08-2019 07:46 Срок давности Скачать торрент  

Срок давности
Год выпуска: 2017
Страна: Украина, Россия
Жанр: Детектив, мелодрама
Продолжительность: ~ 00:45:00
Субтитры: отсутствуют

Режиссер: Максим Демченко



В ролях: Дарья Румянцева, Владимир Колганов, Сергей Радченко (IV), Юлия Кудояр, Ольга Морозова

Описание: Учительница Александра счастлива с мужем Антоном и дочкой Машей, любит свою работу. Жизнь её омрачена только нехваткой денег и нелюбовью свекрови. Когда у Антона начинаются проблемы на работе, Александра, чтобы помочь мужу, устраивается репетитором в богатую семью. Придя на очередной урок, Саша обнаруживает тело матери своей ученицы рядом с открытым пустым сейфом. Испугавшись обвинений, женщина убегает, но вскоре к ней домой является полиция и находит в Сашиных вещах драгоценности покойной...

Выйдя через 7 лет из тюрьмы, Александра понимает, что потеряла всё: муж ушёл к подруге, дочь считает, что мать её бросила, на работу не берут, жить негде. Отец ученицы жаждет отомстить за убийство жены. Жизнь на свободе кажется адом. Однако Александра не собирается опускать руки: она хочет найти настоящего преступника, восстановить своё доброе имя и вернуть дочь.

Качество: HDTV 1080i
Формат: TS

Видео: 1920x1080 (16:9), 25.000 fps, ~8700 kbps, ~ 0.168 bit/pixel
Аудио#1: 48000 Гц, 2 ch, 192 kbps
Аудио#2: 48000 Гц, 6 ch, 448 kbps
скриншот  скриншот  скриншот  скриншот  скриншот  

Общее
Идентификатор : 1 (0x1)
Полное имя : D:\Срок.давности.2017.HDTV.1080i-ylnian\Срок.давности.2017.HDTV.1080i-ylnian_1.ts
Формат : MPEG-TS
Размер файла : 2,95 Гбайт
Продолжительность : 43 м. 41 с.
Режим общего битрейта : Переменный
Общий поток : 9668 Кбит/сек

Видео
Идентификатор : 3551 (0xDDF)
Идентификатор меню : 17015 (0x4277)
Формат : AVC
Формат/Информация : Advanced Video Codec
Профиль формата : Main@L4
Настройки формата : CABAC / 3 Ref Frames
Параметр CABAC формата : Да
Параметр RefFrames формата : 3 кадра
Параметр GOP формата : M=4, N=32
Идентификатор кодека : 27
Продолжительность : 43 м. 41 с.
Битрейт : 8544 Кбит/сек
Ширина : 1920 пикселей
Высота : 1080 пикселей
Соотношение сторон : 16:9
Частота кадров : 25,000 кадров/сек
Цветовое пространство : YUV
Субдискретизация насыщенности : 4:2:0
Битовая глубина : 8 бит
Тип развёртки : Чересстрочная
Метод сохранения типа развёртки : Раздельные поля
Порядок развёртки : Верхнее поле первое
Бит/(Пиксели*Кадры) : 0.165
Размер потока : 2,61 Гбайт (88%)
Цветовой диапазон : Limited
Основные цвета : BT.709
Характеристики трансфера : BT.709
Коэффициенты матрицы : BT.709

Аудио #1
Идентификатор : 3552 (0xDE0)
Идентификатор меню : 17015 (0x4277)
Формат : MPEG Audio
Версия формата : Version 1
Профиль формата : Layer 2
Идентификатор кодека : 3
Продолжительность : 43 м. 41 с.
Вид битрейта : Постоянный
Битрейт : 192 Кбит/сек
Каналы : 2 канала
Частота : 48,0 КГц
Частота кадров : 41,667 кадра/сек (1152 SPF)
Метод сжатия : С потерями
Задержка видео : -40 мс.
Размер потока : 60,0 Мбайт (2%)
Язык : Russian

Аудио #2
Идентификатор : 3553 (0xDE1)
Идентификатор меню : 17015 (0x4277)
Формат : AC-3
Формат/Информация : Audio Coding 3
Коммерческое название : Dolby Digital
Идентификатор кодека : 6
Продолжительность : 43 м. 41 с.
Вид битрейта : Постоянный
Битрейт : 448 Кбит/сек
Каналы : 6 каналов
Channel layout : L R C LFE Ls Rs
Частота : 48,0 КГц
Частота кадров : 31,250 кадров/сек (1536 SPF)
Битовая глубина : 16 бит
Метод сжатия : С потерями
Задержка видео : -40 мс.
Размер потока : 140 Мбайт (5%)
Язык : Russian
ServiceKind/String : Complete Main

pb.wtf



Скачать Срок давности через торрент http://s41.radikal.ru/i094/1709/a0/8ec4419c7506.jpg Скачать фильм Срок давности через торрент бесплантно в хорошем качестве Описание: Учительница Александра счастлива с мужем Антоном и дочкой Машей, любит свою работу. Жизнь её омрачена только нехваткой денег и ... 10 10 2
Торрент: Зарегистрирован [2019-08-28 07:46] · скачан: 14 раз
Статус: √ проверено
Размер: 12.34 GB
Как cкачать? Как скачать Срок давности через торрент | qTorrent

% Раздел Тема Автор DL S | L
Наши сериалы [ 6.77 GB ] Срок давности / 1-4 серии из 4 [2017 Мело WEB-DL 1080p] bober100 Скачать
1 | 0
Наши сериалы [ 2.38 GB ] Срок давности / 1-4 серии из 4 [2017 SATRip] bober100 Скачать
1 | 0

28-11-2019 20:33  

Отключить всю рекламу на сайте

    Дорогой пользователь! Огромная просьба, поблагодарите релизера, оцените раздачу и оставьте свои комментарий, если Вы скачали Срок давности через торрент бесплатно! Внесите свою лепту в развитие PiratBit!
    Комментировать посты могут только пользователи прошедшие не сложную регистрацию
    Показать сообщения:    

    Срок давности через торрент
    Скачать бесплатно Срок давности
    Срок давности скачать торрент
    Срок давности смотреть онлайн
    Cкачать фильм Срок давности бесплатно
    Срок давности скачать торрент в хорошем качестве
    Срок давности смотреть онлайн бесплатно в хорошем качестве


    Вы не можете начинать темы
    Вы не можете отвечать на сообщения
    Вы не можете редактировать свои сообщения
    Вы не можете удалять свои сообщения
    Вы не можете голосовать в опросах
    Вы не можете прикреплять файлы к сообщениям
    Вы можете скачивать файлы