2 сезон

iTunes

MVO

1

2 сезон

iTunes

iTunes

1 сезон

RePack

30

Новинка

ВАЖНО

ИГРА 18+

pack

RePack

MK11
pack

Легкие деньги

RePack

jed

RePack

fifa19

RePack

RDR2

RePack

NEED FOR SPEED™ PAYBACK

4 сезон

9 сезон

Бесстыжие 9 сезон

Все сериалы

все сериалы на PB.wtf

RePack

FAR CRY 5

Anonymous, добрый день, мы не успеваем собрать деньги на оплату серверов за декабрь и январь, помогите нам пожалуйста в это трудное время. В качестве благодарности мы отключим Вам всю рекламу на сайте (укажите свой ник в строку Ваше имя)!

×
  
Magnet ссылка

Видок: Охотник на призраков / Видок: Император Парижа / L'Empereur de Paris (Жан-Франсуа Рише) [2018, приключения, история, BDRip - HEVC 1080p 10 bit 60 FPS] DUB [iTunes] pb.wtf

Видок: Охотник на призраков через торрент pb.wtf

Размер: 3.68 GB | Добавлен: 1 год 4 мес. назад | Торрент скачан:463 раза
Скачать  

28-08-2019 17:32 Видок: Охотник на призраков Скачать торрент  


««Легендарный сыщик или гениальный преступник?»»

Год выпуска: 2018
Страна: Франция
Жанр: триллер,
Продолжительность: 02:00:04
Перевод: Дубляж - [Лицензия / iTunes]
В ролях: Ольга Куриленко, Венсан Кассель, Фрейя Мавор, Аугуст Диль, Дени Меноше, Дени Лаван, Фабрис Лукини, Уилльям Скьортино, Джеймс Тьерре, Патрик Шене
Описание:
Реальная история легендарного французского сыщика XIX века Эжена Франсуа Видока. Ловкий преступник и мастер по части побегов из тюрем Видок менял города и профессии, пока не был нанят наполеоновским правительством очистить улицы Парижа от криминала. Зная преступный мир изнутри, Видок стал самым успешным детективом своей эпохи и настоящим Императором Парижа.
Мировая премьера: 3 ноября 2018

Качество: BDRip 1080p Rip by DD2D3
Исходник: BDRemux by NNMClub
Формат: MKV
Видео: V_MPEGH/ISO/HEVC, 1920x804 (2.40:1), 4000 kbps, 59,940 fps, 0,043 bpp
Аудио: русский / AC3 / 5.1 / 48 kHz / 384 kbps / ||
Навигация по главам: есть


Общее
Уникальный идентификатор : 253151952743158919811041992503907516405 (0xBE734AE997494F56BCDB1CADE6CEFFF5)
Полное имя : D:\Видок Император Парижа - L'Empereur de Paris (2018) BDRip - HEVC 1080p 10 bit 60 FPS.mkv
Формат : Matroska
Версия формата : Version 4
Размер файла : 3,68 Гбайт
Продолжительность : 2 ч. 0 м.
Общий поток : 4388 Кбит/сек
Название фильма : Rip by DD2D3
Дата кодирования : UTC 2019-08-28 16:37:08
Программа кодирования : mkvmerge v10.0.0 ('To Drown In You') 32bit
Библиотека кодирования : libebml v1.3.4 + libmatroska v1.4.5
Attachments : poster

Видео
Идентификатор : 1
Формат : HEVC
Формат/Информация : High Efficiency Video Coding
Профиль формата : Main 10@L4.1@Main
Идентификатор кодека : V_MPEGH/ISO/HEVC
Продолжительность : 2 ч. 0 м.
Битрейт : 4000 Кбит/сек
Ширина : 1920 пикселей
Высота : 804 пикселя
Соотношение сторон : 2,40:1
Режим частоты кадров : Постоянный
Частота кадров : 59,940 (60000/1001) кадров/сек
Цветовое пространство : YUV
Субдискретизация насыщенности : 4:2:0
Битовая глубина : 10 бит
Бит/(Пиксели*Кадры) : 0.043
Размер потока : 3,36 Гбайт (91%)
Библиотека кодирования : x265 2.3+33-0b7d54dbb71a87a0:[Windows][MSVC 1800][64 bit] 10bit: KG7x [x265.ru]
Настройки программы : cpuid=1173503 / frame-threads=2 / numa-pools=4 / wpp / no-pmode / no-pme / no-psnr / no-ssim / log-level=2 / input-csp=1 / input-res=1920x804 / interlace=0 / total-frames=431858 / level-idc=41 / high-tier=1 / uhd-bd=0 / ref=3 / no-allow-non-conformance / no-repeat-headers / annexb / no-aud / no-hrd / info / hash=0 / no-temporal-layers / open-gop / min-keyint=25 / keyint=250 / bframes=4 / b-adapt=2 / b-pyramid / bframe-bias=0 / rc-lookahead=20 / lookahead-slices=5 / scenecut=40 / no-intra-refresh / ctu=64 / min-cu-size=8 / no-rect / no-amp / max-tu-size=32 / tu-inter-depth=1 / tu-intra-depth=1 / limit-tu=0 / rdoq-level=0 / dynamic-rd=0.00 / no-ssim-rd / signhide / no-tskip / nr-intra=0 / nr-inter=0 / no-constrained-intra / strong-intra-smoothing / max-merge=2 / limit-refs=3 / no-limit-modes / me=1 / subme=2 / merange=57 / temporal-mvp / weightp / no-weightb / no-analyze-src-pics / deblock=0:0 / no-sao / no-sao-non-deblock / rd=3 / no-early-skip / no-rskip / no-fast-intra / no-tskip-fast / no-cu-lossless / no-b-intra / rdpenalty=0 / psy-rd=4.00 / psy-rdoq=0.00 / no-rd-refine / analysis-mode=0 / no-lossless / cbqpoffs=0 / crqpoffs=0 / rc=abr / bitrate=4000 / qcomp=0.60 / qpstep=1 / stats-write=0 / stats-read=2 / cplxblur=20.0 / qblur=0.5 / ipratio=1.10 / pbratio=1.00 / aq-mode=0 / aq-strength=0.00 / no-cutree / zone-count=0 / no-strict-cbr / qg-size=64 / rc-grain / qpmax=69 / qpmin=0 / sar=1 / overscan=0 / videoformat=5 / range=0 / colorprim=2 / transfer=2 / colormatrix=2 / chromaloc=0 / display-window=0 / max-cll=0,0 / min-luma=0 / max-luma=1023 / log2-max-poc-lsb=8 / vui-timing-info / vui-hrd-info / slices=1 / opt-qp-pps / opt-ref-list-length-pps / no-multi-pass-opt-rps / scenecut-bias=0.05 / no-opt-cu-delta-qp / no-aq-motion / no-hdr / no-hdr-opt / refine-level=5 / no-limit-sao
Default : Да
Forced : Нет

Аудио
Идентификатор : 2
Формат : AC-3
Формат/Информация : Audio Coding 3
Коммерческое название : Dolby Digital
Идентификатор кодека : A_AC3
Продолжительность : 2 ч. 0 м.
Вид битрейта : Постоянный
Битрейт : 384 Кбит/сек
Каналы : 6 каналов
Channel layout : L R C LFE Ls Rs
Частота : 48,0 КГц
Частота кадров : 31,250 кадров/сек (1536 SPF)
Битовая глубина : 16 бит
Метод сжатия : С потерями
Размер потока : 330 Мбайт (9%)
Заголовок : Дублированный (iTunes)
Язык : Russian
ServiceKind/String : Complete Main
Default : Да
Forced : Нет

Меню
00:00:00.000 : en:Chapter 01
00:10:12.821 : en:Chapter 02
00:19:20.493 : en:Chapter 03
00:30:27.325 : en:Chapter 04
00:41:02.293 : en:Chapter 05
00:54:33.020 : en:Chapter 06
01:06:07.338 : en:Chapter 07
01:15:48.335 : en:Chapter 08
01:23:11.778 : en:Chapter 09
01:32:59.240 : en:Chapter 10
01:42:15.504 : en:Chapter 11
01:54:05.213 : en:Chapter 12
скриншот  скриншот  скриншот  скриншот  

© Оформление by DD2D3pb.wtf



Скачать Видок: Охотник на призраков через торрент https://funkyimg.com/i/2WxNi.jpg Скачать фильм Видок: Охотник на призраков через торрент бесплантно в хорошем качестве Описание: Реальная история легендарного французского сыщика XIX века Эжена Франсуа Видока. Ловкий преступник и мастер по части побегов из ... 8.9 10 11
Торрент: Зарегистрирован [2019-08-28 17:32] · скачан: 463 раз
Статус: √ проверено
Размер: 3.68 GB
Как cкачать? Как скачать Видок: Охотник на призраков через торрент | UTorrent

28-11-2019 20:33  

Отключить всю рекламу на сайте

    Дорогой пользователь! Огромная просьба, поблагодарите релизера, оцените раздачу и оставьте свои комментарий, если Вы скачали Видок: Охотник на призраков через торрент бесплатно! Внесите свою лепту в развитие PiratBit!
    Комментировать посты могут только пользователи прошедшие не сложную регистрацию
    Показать сообщения:    

    Видок: Охотник на призраков через торрент
    Скачать бесплатно Видок: Охотник на призраков
    Видок: Охотник на призраков скачать торрент
    Видок: Охотник на призраков смотреть онлайн
    Cкачать фильм Видок: Охотник на призраков бесплатно
    Видок: Охотник на призраков скачать торрент в хорошем качестве
    Видок: Охотник на призраков смотреть онлайн бесплатно в хорошем качестве


    Вы не можете начинать темы
    Вы не можете отвечать на сообщения
    Вы не можете редактировать свои сообщения
    Вы не можете удалять свои сообщения
    Вы не можете голосовать в опросах
    Вы не можете прикреплять файлы к сообщениям
    Вы можете скачивать файлы