Доктор Стрэндж

Лицензия

Добыча

Дубляж

Дом дракона

1 сезон

Тор

Дубляж

В эфире

Дубляж

Там, где раки поют

MVO

Властелин колец

1 сезон

GLOBAL

pack

Рекомендуем

30

Пиратка

ВАЖНО

ВАЖНО

Ghostwire

Пиратка

jed

RePack

nioh2

RePack

RDR2

RePack

NEED FOR SPEED™ PAYBACK

RePack

скачать торрент

Кинопоиск HD

Острые козырьки 6 сезон

6 сезон

FAR CRY 6

RePack

скачать торрент

Лицензия

скачать торрент

MVO

1

1 сезон

скачать торрент

1 сезон

скачать торрент

Лицензия

  

Капкан / Crawl (Александр Ажа) [2019, ужасы, боевик, триллер, драма, приключения, BD Remux 1080p] Дубляж [Лицензия]

Капкан через торрент pb.wtf

Размер: 21.08 GB | Добавлен: 3 года назад | Торрент скачан:212 раз
Смотреть онлайн | Скачать   

28-08-2019 17:45 Капкан Скачать торрент  

Капкан / Crawl
Год выпуска: 2019
Страна: США
Студия: Paramount Pictures, Raimi Productions
Жанр: ужасы, боевик, триллер, драма, приключения
Продолжительность: 01:27:32
Перевод: Дублированный | Лицензия
Субтитры: Русские (Forced, full), английские

Режиссер: Александр Ажа

rating

В ролях: Кая Скоделарио, Барри Пеппер, Морфидд Кларк, Росс Андерсон, Хосе Пальма, Джордж Сомнер, Энсон Бун, Эми Меткалф, Тина Прибичевич, Срна Васильевич

Описание: Когда на Флориду обрушивается мощнейший ураган, Хейли игнорирует приказы об эвакуации, чтобы попытаться встретиться в этом хаосе с пропавшим отцом. Она обнаруживает его тяжелораненым в подвале их дома, где они оказываются в ловушке из-за прибывающей воды. Но это меньшее, чего им стоит бояться...

Качество: BD Remux 1080p
Формат: MKV

Видео: MPEG-4 AVC, 1920x1080, 29.0 Mbit/s, 23.976 fps
Аудио #01: 48 kHz, AC3, 5.1, 640 Kbps | Лицензия | RUS |
Аудио #02: 48 kHz, DTS-HD MA, 7.1, 4860 Kbps | Оригинал | ENG |
скриншот  скриншот  скриншот  скриншот  скриншот  

General
Unique ID : 62206951452120325168411593398946294231 (0x2ECC9F80897558517391DC2A52D6E9D7)
Complete name : D:Video111Crawl.2019.BDREMUX.1080p.seleZen.mkv
Format : Matroska
Format version : Version 4
File size : 21.1 GiB
Duration : 1 h 27 min
Overall bit rate mode : Variable
Overall bit rate : 34.5 Mb/s
Movie name : Crawl 2019 from селезень
Encoded date : UTC 2019-11-13 22:59:45
Writing application : mkvmerge v40.0.0 ('Old Town Road + Pony') 64-bit
Writing library : libebml v1.3.9 + libmatroska v1.5.2

Video
ID : 1
Format : AVC
Format/Info : Advanced Video Codec
Format profile : [email protected]
Format settings : CABAC / 4 Ref Frames
Format settings, CABAC : Yes
Format settings, Reference : 4 frames
Codec ID : V_MPEG4/ISO/AVC
Duration : 1 h 27 min
Bit rate mode : Variable
Bit rate : 29.0 Mb/s
Maximum bit rate : 32.3 Mb/s
Width : 1 920 pixels
Height : 1 080 pixels
Display aspect ratio : 16:9
Frame rate mode : Constant
Frame rate : 23.976 (24000/1001) FPS
Color space : YUV
Chroma subsampling : 4:2:0
Bit depth : 8 bits
Scan type : Progressive
Bits/(Pixel*Frame) : 0.583
Stream size : 17.7 GiB (84%)
Language : English
Default : Yes
Forced : No

Audio #1
ID : 2
Format : AC-3
Format/Info : Audio Coding 3
Commercial name : Dolby Digital
Codec ID : A_AC3
Duration : 1 h 27 min
Bit rate mode : Constant
Bit rate : 640 kb/s
Channel(s) : 6 channels
Channel layout : L R C LFE Ls Rs
Sampling rate : 48.0 kHz
Frame rate : 31.250 FPS (1536 SPF)
Bit depth : 16 bits
Compression mode : Lossy
Stream size : 401 MiB (2%)
Title : Дубляж [License]
Language : Russian
Service kind : Complete Main
Default : Yes
Forced : Yes

Audio #2
ID : 3
Format : DTS XLL
Format/Info : Digital Theater Systems
Commercial name : DTS-HD Master Audio
Codec ID : A_DTS
Duration : 1 h 27 min
Bit rate mode : Variable
Bit rate : 4 860 kb/s
Channel(s) : 8 channels
Channel layout : C L R LFE Lb Rb Lss Rss
Sampling rate : 48.0 kHz
Frame rate : 93.750 FPS (512 SPF)
Bit depth : 24 bits
Compression mode : Lossless
Stream size : 2.97 GiB (14%)
Title : Original
Language : English
Default : No
Forced : No

Text #1
ID : 4
Format : UTF-8
Codec ID : S_TEXT/UTF8
Codec ID/Info : UTF-8 Plain Text
Duration : 1 h 26 min
Bit rate : 0 b/s
Count of elements : 12
Stream size : 456 Bytes (0%)
Title : Forced
Language : Russian
Default : Yes
Forced : Yes

Text #2
ID : 5
Format : UTF-8
Codec ID : S_TEXT/UTF8
Codec ID/Info : UTF-8 Plain Text
Duration : 1 h 24 min
Bit rate : 37 b/s
Count of elements : 591
Stream size : 23.0 KiB (0%)
Title : Full
Language : Russian
Default : No
Forced : No

Text #3
ID : 6
Format : UTF-8
Codec ID : S_TEXT/UTF8
Codec ID/Info : UTF-8 Plain Text
Duration : 1 h 16 min
Bit rate : 24 b/s
Count of elements : 551
Stream size : 13.9 KiB (0%)
Language : English
Default : No
Forced : No

Menu
00:00:00.000 : :Chapter 01
00:07:51.805 : :Chapter 02
00:15:16.290 : :Chapter 03
00:22:15.459 : :Chapter 04
00:34:42.998 : :Chapter 05
00:42:15.283 : :Chapter 06
00:50:13.219 : :Chapter 07
00:57:13.221 : :Chapter 08
01:03:51.619 : :Chapter 09
01:08:56.299 : :Chapter 10
01:16:36.425 : :Chapter 11
01:23:10.819 : :Chapter 12



Скачать Капкан через торрент https://img16.lostpic.net/2019/11/13/8d655af4721bfc2ef9868a854b161271.jpg Скачать, смотреть онлайн Капкан бесплантно в хорошем качестве Описание: Когда на Флориду обрушивается мощнейший ураган, Хейли игнорирует приказы об эвакуации, чтобы попытаться встретиться в этом хаосе ... 10 10 10
Торрент: Зарегистрирован [2019-11-14 02:11] · скачан: 212 раз
Статус: √ проверено
Размер: 21.08 GB
Как cкачать? Как скачать Капкан через торрент | UTorrent

% Раздел Тема Автор DL S | L
Ultra HD (UHD: 2K, 4K, 8K) [ 11.49 GB ] Капкан / Crawl | Лицензия | 2160p bober100 Скачать
2 | 0
Фильмы (Blu-ray, BD-Remux, HDDVD) [ 24.06 GB ] Капкан / Crawl | Лицензия | 1080p sheker187 Скачать
1 | 0
Фильмы (Blu-ray, BD-Remux, HDDVD) [ 38.83 GB ] Капкан / Crawl | Лицензия | 1080p bober100 Скачать
1 | 0
Фильмы 2019-2020 [DVDrip, WEB-DLRip, HDrip] (DUB, MVO) [ 2 GB ] Капкан / Crawl | Лицензия | BDRip-AVC Enigma2010 Скачать
10 | 0
Фильмы [HD 720p, 1080p] (Хороший звук DUB, MVO) [ 9.63 GB ] Капкан / Crawl | Лицензия | 1080p bober100 Скачать
1 | 0
Фильмы 2019-2020 [DVDrip, WEB-DLRip, HDrip] (DUB, MVO) [ 1.46 GB ] Капкан / Crawl | Лицензия Blu-Ray EUR | BDRip bober100 Скачать
1 | 0
Фильмы 2019-2020 [DVDrip, WEB-DLRip, HDrip] (DUB, MVO) [ 1.46 GB ] Капкан / Crawl | Лицензия | BDRip Twi7ter Скачать
4 | 0

28-11-2019 20:33  


Отключить вcю реклaмy на сайте, в т.ч. и в плеере онлайн просмотра!

    Дорогой пользователь! Огромная просьба, поблагодарите релизера, оцените раздачу и оставьте свои комментарий, если Вы скачали Капкан через торрент бесплатно!!
    Комментировать посты могут только пользователи прошедшие не сложную регистрацию
    Показать сообщения:    


    Капкан через торрент
    Скачать бесплатно Капкан
    Капкан скачать торрент
    Капкан смотреть онлайн
    Cкачать фильм Капкан бесплатно
    Капкан скачать торрент в хорошем качестве
    Капкан смотреть онлайн бесплатно в хорошем качестве
    Вы не можете начинать темы
    Вы не можете отвечать на сообщения
    Вы не можете редактировать свои сообщения
    Вы не можете удалять свои сообщения
    Вы не можете голосовать в опросах
    Вы не можете прикреплять файлы к сообщениям
    Вы можете скачивать файлы
    Капкан / Crawl [2019, ужасы, боевик, триллер, драма, приключения, BD Remux 1080p] Дубляж [Лицензия] смотреть онлайн, скачать торрент picoco.icu