2 сезон

iTunes

MVO

1

2 сезон

iTunes

iTunes

1 сезон

RePack

30

Новинка

ВАЖНО

ИГРА 18+

pack

RePack

MK11
pack

Легкие деньги

RePack

jed

RePack

fifa19

RePack

RDR2

RePack

NEED FOR SPEED™ PAYBACK

4 сезон

9 сезон

Бесстыжие 9 сезон

Все сериалы

все сериалы на PB.wtf

RePack

FAR CRY 5

Anonymous, добрый день, мы не успеваем собрать деньги на оплату серверов за декабрь и январь, помогите нам пожалуйста в это трудное время. В качестве благодарности мы отключим Вам всю рекламу на сайте (укажите свой ник в строку Ваше имя)!

×
  
Magnet ссылка

Бремя истины / Burden of Truth / Сезон: 2 / Серии: 1-8 из 8 (Джордан Каннинг, Джеймс Дженн, Грант Харви) [2019, Драма, WEBRip 1080p] MVO [TVShows] pb.wtf

Бремя истины через торрент pb.wtf

Размер: 17.03 GB | Добавлен: 1 год 4 мес. назад | Торрент скачан:2 раза
Скачать  

28-08-2019 19:53 Бремя истины Скачать торрент  

Бремя истины | Burden of Truth Год выпуска: 2019
Страна: Канада
Жанр: Драма
Продолжительность: ~ 00:44:00
Перевод: Профессиональный (многоголосый закадровый) | TVShows
Субтитры: отсутствуют

Режиссёр: Джордан Каннинг, Джеймс Дженн, Грант Харви

В ролях: Питер Муни, Кристин Крук, Стар Слейд, Никола Коррейя-Дамуд, Мигвун Фэйрбразер, Сара Томпсон, Дэвид Браун, Анвен О’Дрискол и др.

Описание: Крупный адвокат Джоанна Хэнли возвращается в свой родной город, чтобы вести дело нескольких девушек, страдающих таинственной болезнью.

rating

Качество: WEBRip 1080p
Формат: MKV

Видео: X264, 1920x960, 23.976 fps, ~4980 kbps
Аудио 1: AC3, 48 kHz, 5.1 ch, 384 kbps, CBR - Rus
Аудио 2: AC3, 48 kHz, 5.1 ch, 384 kbps, CBR - Eng


Реклама: отсутствует
General
Unique ID                   : 217871803127987617262159920560192431681 (0xA3E8953D672172C26DC3846969852641)
Complete name               : F:\Burden.of.Truth.S02.1080p.TVShows\Burden.of.Truth.S02E01.1080p.TVShows.mkv
Format                      : Matroska
Format version              : Version 4 / Version 2
File size                   : 1.77 GiB
Duration                    : 44 min 10 s
Overall bit rate            : 5 749 kb/s
Encoded date                : UTC 2019-01-25 08:08:34
Writing application         : mkvmerge v29.0.0 ('Like It Or Not') 64-bit
Writing library             : libebml v1.3.6 + libmatroska v1.4.9

Video
ID                          : 1
Format                      : AVC
Format/Info                 : Advanced Video Codec
Format profile              : High@L4.1
Format settings             : CABAC / 4 Ref Frames
Format settings, CABAC      : Yes
Format settings, ReFrames   : 4 frames
Codec ID                    : V_MPEG4/ISO/AVC
Duration                    : 44 min 10 s
Bit rate                    : 4 980 kb/s
Width                       : 1 920 pixels
Height                      : 960 pixels
Display aspect ratio        : 2.000
Frame rate mode             : Constant
Frame rate                  : 23.976 (24000/1001) FPS
Color space                 : YUV
Chroma subsampling          : 4:2:0
Bit depth                   : 8 bits
Scan type                   : Progressive
Bits/(Pixel*Frame)          : 0.113
Stream size                 : 1.54 GiB (87%)
Writing library             : x264 core 157 r2935 545de2f
Encoding settings           : cabac=1 / ref=4 / deblock=1:-3:-3 / analyse=0x3:0x113 / me=hex / subme=8 / psy=1 / psy_rd=1.00:0.15 / mixed_ref=1 / me_range=16 / chroma_me=1 / trellis=2 / 8x8dct=1 / cqm=0 / deadzone=21,11 / fast_pskip=1 / chroma_qp_offset=-2 / threads=30 / lookahead_threads=5 / sliced_threads=0 / nr=0 / decimate=1 / interlaced=0 / bluray_compat=0 / constrained_intra=0 / bframes=3 / b_pyramid=2 / b_adapt=2 / b_bias=0 / direct=3 / weightb=1 / open_gop=0 / weightp=2 / keyint=250 / keyint_min=23 / scenecut=40 / intra_refresh=0 / rc_lookahead=50 / rc=crf / mbtree=1 / crf=18.0 / qcomp=0.60 / qpmin=0 / qpmax=69 / qpstep=4 / ip_ratio=1.40 / aq=1:0.80
Language                    : English
Default                     : Yes
Forced                      : No
Color range                 : Limited
Matrix coefficients         : BT.709

Audio #1
ID                          : 2
Format                      : AC-3
Format/Info                 : Audio Coding 3
Codec ID                    : A_AC3
Duration                    : 44 min 10 s
Bit rate mode               : Constant
Bit rate                    : 384 kb/s
Channel(s)                  : 6 channels
Channel positions           : Front: L C R, Side: L R, LFE
Sampling rate               : 48.0 kHz
Frame rate                  : 31.250 FPS (1536 SPF)
Bit depth                   : 16 bits
Compression mode            : Lossy
Stream size                 : 121 MiB (7%)
Title                       : TVShows
Language                    : Russian
Service kind                : Complete Main
Default                     : Yes
Forced                      : Yes

Audio #2
ID                          : 3
Format                      : AC-3
Format/Info                 : Audio Coding 3
Codec ID                    : A_AC3
Duration                    : 44 min 10 s
Bit rate mode               : Constant
Bit rate                    : 384 kb/s
Channel(s)                  : 6 channels
Channel positions           : Front: L C R, Side: L R, LFE
Sampling rate               : 48.0 kHz
Frame rate                  : 31.250 FPS (1536 SPF)
Bit depth                   : 16 bits
Compression mode            : Lossy
Stream size                 : 121 MiB (7%)
Title                       : Original
Language                    : English
Service kind                : Complete Main
Default                     : No
Forced                      : No
Когда раздача ведётся путём добавления новых серий, при каждом добавлении создётся новый торрент. Чтобы начать докачку новой серии, пользователям необходимо сделать следующее:
(1) остановить скачивание,
(2) удалить старый торрент у себя из клиента (старые серии удалять не надо),
(3) скачать новый торрент и запустить его у себя в клиенте вместо старого, при этом указать клиенту путь в старую папку, куда и должно происходить скачивание новых серий.
Ваш клиент при этом должен произвести хеширование (проверку) старой папки (если не производит сам - помогите ему сделать это), и будет докачивать только те серии, которых у вас ещё нет. Старые серии при этом не удаляются, а продолжают раздаваться!
Eсли вы уже удалили старые серии, то предотвратить повторную закачку старых серий можно, отжав галочку в соответсвующих местах при запуске нового торрента. По возможности, желательно не удалять старые серии как можно дольше, чтобы релизёр не столько продолжал раздавать старые серии, а смог сконцентрироваться на новых.
pb.wtf



Скачать Бремя истины через торрент https://a.radikal.ru/a34/1901/0e/3b1a2c08575c.jpg Скачать фильм Бремя истины через торрент бесплантно в хорошем качестве Описание: Крупный адвокат Джоанна Хэнли возвращается в свой родной город, чтобы вести дело нескольких девушек, страдающих таинственной ... 10 10 2
Торрент: Зарегистрирован [2019-08-28 19:53] · скачан: 2 раз
Статус: √ проверено
Размер: 17.03 GB
Как cкачать? Как скачать Бремя истины через торрент | UTorrent

% Раздел Тема Автор DL S | L
Зарубежные сериалы [ 16.18 GB ] Бремя истины / Burden of Truth / Сезон: 2 / Серии: 1-8 из 8 [2019 WEB-DL 1080p] MVO [Jaskier] bober100 Скачать
1 | 0
Зарубежные сериалы [ 4.08 GB ] Бремя истины / Burden of Truth / Сезон: 2 / Серии: 1-8 из 8 [2019 WEB-DLRip] MVO [Jaskier] bober100 Скачать
1 | 0

28-11-2019 20:33  

Отключить всю рекламу на сайте

    Дорогой пользователь! Огромная просьба, поблагодарите релизера, оцените раздачу и оставьте свои комментарий, если Вы скачали Бремя истины через торрент бесплатно! Внесите свою лепту в развитие PiratBit!
    Комментировать посты могут только пользователи прошедшие не сложную регистрацию
    Показать сообщения:    

    Бремя истины через торрент
    Скачать бесплатно Бремя истины
    Бремя истины скачать торрент
    Бремя истины смотреть онлайн
    Cкачать фильм Бремя истины бесплатно
    Бремя истины скачать торрент в хорошем качестве
    Бремя истины смотреть онлайн бесплатно в хорошем качестве


    Вы не можете начинать темы
    Вы не можете отвечать на сообщения
    Вы не можете редактировать свои сообщения
    Вы не можете удалять свои сообщения
    Вы не можете голосовать в опросах
    Вы не можете прикреплять файлы к сообщениям
    Вы можете скачивать файлы