2 сезон

iTunes

MVO

1

2 сезон

iTunes

iTunes

1 сезон

RePack

30

Ultimate

ВАЖНО

ИГРА 18+

pack

RePack

MK11
pack

Легкие деньги

RePack

jed

RePack

fifa19

RePack

RDR2

RePack

NEED FOR SPEED™ PAYBACK

4 сезон

9 сезон

Бесстыжие 9 сезон

Все сериалы

все сериалы на PB.wtf

RePack

FAR CRY 5

Anonymous, добрый вечер, мы не успеваем собрать деньги на оплату серверов за декабрь и январь, помогите нам пожалуйста в это трудное время. В качестве благодарности мы отключим Вам всю рекламу на сайте (укажите свой ник в строку Ваше имя)!

×
  
Magnet ссылка

Острые козырьки / Peaky Blinders / Сезон: 4 / Серии: 1-6 из 6 (Отто Батхёрст, Том Харпер) [2017, Драма, криминал, HDRip] [Dub] (True Dubbing Studio) pb.wtf

Острые козырьки через торрент pb.wtf

Раздают: 1 [ 0 KB/s ]
Размер: 5.06 GB | Добавлен: 1 год 4 мес. назад | Торрент скачан:173 раза
Скачать  

29-08-2019 12:27 Острые козырьки Скачать торрент  

Острые козырьки / Peaky Blinders

Год выпуска: 2017
Страна: Великобритания
Жанр: Драма, криминал
Продолжительность: 6 x ~ 00:57:20

Перевод: Профессиональный (дублированный) True Dubbing Studio

Режиссёр: Отто Батхёрст, Том Харпер

В ролях: Киллиан Мёрфи, Сэм Нилл, Хелен МакКрори, Аннабелль Уоллис, Иддо Голдберг, Пол Андерсон, Софи Рандл, Джо Коул, Чарли Крид-Майлз, Сэмюэл Эдвард-Кук, Энди Найман, Томми Флэнаган, Элфи Эванс-Мис, Тони Питтс, Нед Деннехи, Ли Болтон, Эрик Кэмпбелл, Пол Чадвик, Кевин Меткалф, Джеффри Постлтуэйт, Дэвид Доусон, Эйми-Ффион Эдвардс, Наташа О`Киффи, Перри Фицпатрик, Симона Кирби 1919 год. В английском Бирмингеме вся Влacть принадлежит семье Шелби: их боятся и уважают, даже полиция - не указ. Они - Острые Козырьки. Их мир - мир беззакония, пропахший сигаретами, алкоголем и порохом. Но это не обычные головорезы - у них есть собственный кодекс чести и стиль одежды. Томми Шелби, прирожденный бандит и хладнокровный лидер, хочет вывести криминальный авторитет семьи на новый уровень: скачки, азартные игры, продажа оружия… Амбициозные аферы Томми приводят к противостоянию Козырьков с другими бандами, коммунистами, ирландскими революционерами и даже самим Уинстоном Черчиллем. Ситуацию осложняет появление прекрасной незнакомки с волшебным голосом и опасной тайной…

rating

Сэмпл: http://multi-up.com/1238216

Исходник: Peaky.Blinders.S04.1080p.BluRay.x264-SHORTBREHD[rartv]
Качество: HDRip
Формат: AVI
Видео: XviD, 704x384 (1.85:1), 25 fps, ~ 1614 Kbps
Аудио 1: AC3, 48.0 KHz, 2 ch, 192 Kbps | True Dubbing Studio
Аудио 2: AC3, 48.0 KHz, 2 ch, 192 Kbps | Original
Субтитры: Отсутствуют

Реклама: Отсутствует
Общее
Полное имя : D:\Peaky.Blinders.S04.HDRip\Peaky.Blinders.s04e01.HDRip.avi
Формат : AVI
Формат/Информация : Audio Video Interleave
Размер файла : 834 Мбайт
Продолжительность : 57 м. 54 с.
Общий поток : 2013 Кбит/сек
Программа кодирования : VirtualDubMod 1.5.10.2 (build 2542/release)
Библиотека кодирования : VirtualDubMod build 2542/release

Видео
Идентификатор : 0
Формат : MPEG-4 Visual
Профиль формата : Advanced Simple@L5
Настройки формата : BVOP2 / Custom Matrix
Параметр BVOP формата : 2
Параметр QPel формата : Нет
Параметр GMC формата : Без точки перехода
Параметр матрицы формата : Выборочная
Идентификатор кодека : XVID
Идентификатор кодека/Подсказка : XviD
Продолжительность : 57 м. 54 с.
Битрейт : 1614 Кбит/сек
Ширина : 704 пикселя
Высота : 384 пикселя
Соотношение сторон : 1,85:1
Частота кадров : 25,000 кадров/сек
Цветовое пространство : YUV
Субдискретизация насыщенности : 4:2:0
Битовая глубина : 8 бит
Тип развёртки : Прогрессивная
Метод сжатия : С потерями
Бит/(Пиксели*Кадры) : 0.239
Размер потока : 668 Мбайт (80%)
Библиотека кодирования : XviD 1.2.1 (UTC 2008-12-04)

Аудио #1
Идентификатор : 1
Формат : AC-3
Формат/Информация : Audio Coding 3
Коммерческое название : Dolby Digital
Идентификатор кодека : 2000
Продолжительность : 57 м. 54 с.
Вид битрейта : Постоянный
Битрейт : 192 Кбит/сек
Каналы : 2 канала
ChannelLayout : L R
Частота : 48,0 КГц
Частота кадров : 31,250 кадров/сек (1536 SPF)
Битовая глубина : 16 бит
Метод сжатия : С потерями
Размер потока : 79,5 Мбайт (10%)
Выравнивание : Разделение по промежуткам
Продолжительность промежутка : 40 мс. (1,00 видеокадр)
Время предзагрузки промежутка : 500 мс.

Аудио #2
Идентификатор : 2
Формат : AC-3
Формат/Информация : Audio Coding 3
Коммерческое название : Dolby Digital
Идентификатор кодека : 2000
Продолжительность : 57 м. 54 с.
Вид битрейта : Постоянный
Битрейт : 192 Кбит/сек
Каналы : 2 канала
ChannelLayout : L R
Частота : 48,0 КГц
Частота кадров : 31,250 кадров/сек (1536 SPF)
Битовая глубина : 16 бит
Метод сжатия : С потерями
Размер потока : 79,5 Мбайт (10%)
Выравнивание : Разделение по промежуткам
Продолжительность промежутка : 40 мс. (1,00 видеокадр)
Время предзагрузки промежутка : 500 мс.
скриншот  скриншот  скриншот  
pb.wtf



Скачать Острые козырьки через торрент https://i89.fastpic.ru/big/2019/0729/54/265320efd61f7e7702e2390e6d5ff354.jpg Скачать фильм Острые козырьки через торрент бесплантно в хорошем качестве В ролях: Киллиан Мёрфи, Сэм Нилл, Хелен МакКрори, Аннабелль Уоллис, Иддо Голдберг, Пол Андерсон, Софи Рандл, Джо Коул, Чарли Крид-Майлз, ... 10 10 3
Торрент: Зарегистрирован [2019-08-29 12:27] · скачан: 173 раз
Статус: √ проверено
Размер: 5.06 GB
Как cкачать? Как скачать Острые козырьки через торрент | UTorrent

% Раздел Тема Автор DL S | L
Зарубежные сериалы [ 24.53 GB ] Острые козырьки / Peaky Blinders / Сезон: 4 / Серии: 1-6 из 6 [2017 BDRip 1080p] [MVO] killermax2013 Скачать
1 | 0
Зарубежные сериалы [ 25 GB ] Заточенные кепки / Острые козырьки / Peaky Blinders / Сезон: 4 / Серии: 1-6 из 6 [2017 BDRip 1080p] MVO [LostFilm] bober100 Скачать
2 | 0
Зарубежные сериалы [ 9.83 GB ] Заточенные кепки / Острые козырьки / Peaky Blinders / Сезон: 4 / Серии: 1-6 из 6 [2017 WEB-DLRip 1080p] [MVO] killermax2013 Скачать
1 | 0
Зарубежные сериалы [ 3.67 GB ] Заточенные кепки / Острые козырьки / Peaky Blinders / Сезон: 4 / Серии: 1-6 из 6 [2017 HDTVRip-AVC] многоголосый [AlexFilm] R.G.Generalfilm White Smoke Скачать
1 | 0
Зарубежные сериалы [ 7.72 GB ] Заточенные кепки / Острые козырьки / Peaky Blinders / Сезон: 4 / Серии: 1-6 из 6 [2017 HDTVRip 720p][MVO] nn99nn Скачать
1 | 2
Зарубежные сериалы [ 5.93 GB ] Заточенные кепки / Острые козырьки / Peaky Blinders / Сезон:4 / Серии: 1-6 из 6 [2017 WEBRip 720p] [DVO] killermax2013 Скачать
2 | 0
Зарубежные сериалы [ 10.57 GB ] Заточенные кепки / Острые козырьки / Peaky Blinders / Сезон: 4 / Серии: 1-6 из 6 [2017 HDTVRip 1080p] [Sub] killermax2013 Скачать
1 | 0

28-11-2019 20:33  

Отключить всю рекламу на сайте

09-08-2020 12:04 Острые козырьки Скачать торрент  

спасиблpb.wtf



    Дорогой пользователь! Огромная просьба, поблагодарите релизера, оцените раздачу и оставьте свои комментарий, если Вы скачали Острые козырьки через торрент бесплатно! Внесите свою лепту в развитие PiratBit!
    Комментировать посты могут только пользователи прошедшие не сложную регистрацию
    Показать сообщения:    

    Острые козырьки через торрент
    Скачать бесплатно Острые козырьки
    Острые козырьки скачать торрент
    Острые козырьки смотреть онлайн
    Cкачать фильм Острые козырьки бесплатно
    Острые козырьки скачать торрент в хорошем качестве
    Острые козырьки смотреть онлайн бесплатно в хорошем качестве


    Вы не можете начинать темы
    Вы не можете отвечать на сообщения
    Вы не можете редактировать свои сообщения
    Вы не можете удалять свои сообщения
    Вы не можете голосовать в опросах
    Вы не можете прикреплять файлы к сообщениям
    Вы можете скачивать файлы