новый адрес пиратбит piratbit
Мега распродажа FORZA HORIZON 4 ULTIMATE+ВСЕ DLC+ОНЛАЙН всего за 499р. 349 руб. (супер цена). Внимание количество ограничено!!!

iTunes

1+1

iTunes

мы

iTunes

1

iTunes

Чернобыль

iTunes

Ральф против интернета

Лицензия

ПШазам

Лицензия

Игра престолов

Лицензия

30
pack

ВАЖНО

!!Акция!!

Alien_RageХит недели

RePack

Resident Evil 21

ИГРА 18+

pack

RePack

Metro:Exodus

!!Акция!!

Alien_Rage

RePack

fifa19

RePack

Assassins Creed: Odyssey

RePack

NEED FOR SPEED™ PAYBACK

3 сезон

9 сезон

Бесстыжие 9 сезон

Все сериалы

все сериалы на PB.wtf

RePack

FAR CRY 5
Ребята, катастрофически не хватает 1900р. для оплаты серверов за Октябрь (всвязи с блокировками трафик упал в 3 раза), 1-2р., выручайте.
  

Две жизни (Леонид Луков) [1961, Киноповесть, DVDRip-AVC от KORSAR] pb.wtf

Две жизни через торрент pb.wtf

Раздают: 1 [ 0 KB/s ]
Размер: 4.25 GB | Добавлен: 2 мес. 14 д. назад | Торрент скачан:4 раза
Скачать  

29-08-2019 16:29 Две жизни Скачать торрент  

Две жизни

Жанр: Киноповесть
Год выпуска: 1961
Выпущено: СССР, Киностудия им. Горького
Продолжительность: 01:36:22 + 01:28:24
Перевод: Не требуется
Режиссёр: Леонид ЛуковВ ролях: Николай Рыбников, Вячеслав Тихонов, Маргарита Володина, Алла Ларионова, Элла Нечаева, Лев Свердлин, Ольга Жизнева, Лев Поляков, Станислав Чекан, Владимир Дружников, Георгий Юматов, Евгений Шутов, Владимир Колчин, Елена Гоголева, Сергей Гурзо и др.

Описание: Каждый участник революционных событий 1917-го года вынес оттуда что-то свое, глубоко личное. Для Семена Вострикова (Рыбников) революция началась ... с любви к графине Ирине Оболенской (Володина), из-за чего он испытал сильные унижения и оскорбления. Много лет спустя, уже пожилой Семен Востриков, рассказывает об этой истории двум молодым людям, не подозревая, что разговор подслушивает брат Ирины, Сергей Нащекин (Тихонов) который был особенно циничен и высокомерен с ним в молодости ...

Релиз от:

Качество: DVDRip-AVC
Формат: MKV

Видео: MPEG-4 AVC, 674x560@718x560, 682x574@732x574, 25 fps, 3000 Кбит/с
Аудио: AC3, 2 ch, 192 Кбит/с
Язык: Русский

x264 [info]: frame I:714 Avg QP:15.78 size: 73857
x264 [info]: frame P:41619 Avg QP:18.64 size: 36440
x264 [info]: frame B:102429 Avg QP:21.93 size: 7324
x264 [info]: consecutive B-frames: 3.5% 5.7% 35.1% 17.4% 15.0% 22.7% 0.5% 0.1% 0.0%
-----------------------------------------------------------------------------
Общее
Уникальный идентификатор : 170711392662061347852232862731449145687 (0x806DD17BF37056E695341EC0CE241957)
Полное имя : D:\Две жизни_1961-DVDRip-AVC_KORSAR\Две жизни-1.mkv
Формат : Matroska
Версия формата : Version 2
Размер файла : 2,29 Гбайт
Продолжительность : 1 ч. 36 м.
Общий поток : 3398 Кбит/сек
Дата кодирования : UTC 2019-08-06 02:46:50
Программа кодирования : mkvmerge v5.8.0 ('No Sleep / Pillow') built on Sep 2 2012 15:37:04
Библиотека кодирования : libebml v1.2.3 + libmatroska v1.3.0

Видео
Идентификатор : 1
Формат : AVC
Формат/Информация : Advanced Video Codec
Профиль формата : High@L4.1
Настройки формата : CABAC / 14 Ref Frames
Параметр CABAC формата : Да
Параметр RefFrames формата : 14 кадров
Идентификатор кодека : V_MPEG4/ISO/AVC
Продолжительность : 1 ч. 36 м.
Битрейт : 3139 Кбит/сек
Ширина : 674 пикселя
Высота : 560 пикселей
Соотношение сторон : 1,282
Соотношение сторон в оригинале : 1,284
Режим частоты кадров : Постоянный
Частота кадров : 25,000 кадров/сек
Цветовое пространство : YUV
Субдискретизация насыщенности : 4:2:0
Битовая глубина : 8 бит
Тип развёртки : Прогрессивная
Бит/(Пиксели*Кадры) : 0.333
Размер потока : 2,12 Гбайт (92%)
Библиотека кодирования : x264 core 152 r2851kMod ba24899
Настройки программы : cabac=1 / ref=14 / deblock=1:-2:-1 / analyse=0x3:0x133 / me=umh / subme=10 / psy=1 / fade_compensate=0.00 / psy_rd=1.05:0.10 / mixed_ref=1 / me_range=32 / chroma_me=1 / trellis=2 / 8x8dct=1 / cqm=0 / deadzone=21,11 / fast_pskip=1 / chroma_qp_offset=-3 / threads=17 / lookahead_threads=2 / sliced_threads=0 / nr=0 / decimate=1 / interlaced=0 / bluray_compat=0 / constrained_intra=0 / bframes=8 / b_pyramid=2 / b_adapt=2 / b_bias=0 / direct=1 / weightb=1 / open_gop=0 / weightp=2 / keyint=250 / keyint_min=25 / scenecut=40 / intra_refresh=0 / rc_lookahead=40 / rc=crf / mbtree=1 / crf=17.3000 / qcomp=0.61 / qpmin=0 / qpmax=35 / qpstep=4 / ip_ratio=1.40 / aq=2:1.00
Язык : English
Default : Да
Forced : Нет
Цветовой диапазон : Limited
Основные цвета : BT.601 PAL
Характеристики трансфера : BT.470 System B/G
Коэффициенты матрицы : BT.470 System B/G

Аудио
Идентификатор : 2
Формат : AC-3
Формат/Информация : Audio Coding 3
Коммерческое название : Dolby Digital
Идентификатор кодека : A_AC3
Продолжительность : 1 ч. 36 м.
Вид битрейта : Постоянный
Битрейт : 192 Кбит/сек
Каналы : 2 канала
ChannelLayout : L R
Частота : 48,0 КГц
Частота кадров : 31,250 кадров/сек (1536 SPF)
Битовая глубина : 16 бит
Метод сжатия : С потерями
Размер потока : 133 Мбайт (6%)
Язык : Russian
ServiceKind/String : Complete Main
Default : Да
Forced : Нет
pb.wtf



Скачать Две жизни через торрент https://d.radikal.ru/d05/1908/a4/1b0826fcf51e.png Скачать фильм Две жизни через торрент бесплантно в хорошем качестве Описание: Каждый участник революционных событий 1917-го года вынес оттуда что-то свое, глубоко личное. Для Семена Вострикова (Рыбников) ... 5 10 1
Info! Золотая раздача, скачанное не засчитывается.
Торрент: Зарегистрирован [2019-08-29 16:29] · скачан: 4 раз
Статус: √ проверено
Размер: 4.25 GB
Как cкачать? Как скачать Две жизни через торрент | qTorrent

% Раздел Тема Автор DL S | L
Наши сериалы [ 6.16 GB ] Две жизни / Серии: 1-12 из 12 [2016 SATRip-AVC] aleksan55 Скачать
1 | 0
Кино СССР [ 745 MB ] Две жизни [1956 СССР короткометражка SATRip-AVC от AVP Studio] AVP Studio Скачать
1 | 0
Кино СССР [ 745 MB ] Две жизни [1956 СССР короткометражка SATRip от AVP Studio] AVP Studio Скачать
1 | 0
Документальные фильмы и телепередачи [ 546 MB ] Вечно молодой. Две жизни Сергея Бодрова [2015 Документальный SATRip Оригинал] Ворон Скачать
1 | 0
Документальные фильмы и телепередачи [ 696 MB ] Две жизни Джорджа Блейка. Или Агент КГБ на службе Ее Величества [2012 Документальный история биография SATRip Оригинал] кэп Скачать
1 | 0


>> Регистрируемся здесь <<






Отзывы и комментарии о схеме читаем и пишем здесь: ---> Отзывы и комментарии о схеме

Новые благодарочки в телеграм довольных пользователей:
скриншот   скриншот   скриншот   скриншот   скриншот
    Дорогой пользователь! Огромная просьба, поблагодарите релизера, оцените раздачу и оставьте свои комментарий, если Вы скачали Две жизни через торрент бесплатно! Внесите свою лепту в развитие PiratBit!
    Комментировать посты могут только пользователи прошедшие не сложную регистрацию
    Показать сообщения:    

    Две жизни через торрент
    Скачать бесплатно Две жизни
    Две жизни скачать торрент
    Две жизни смотреть онлайн
    Cкачать фильм Две жизни бесплатно
    Две жизни скачать торрент в хорошем качестве
    Две жизни смотреть онлайн бесплатно в хорошем качестве


    Вы не можете начинать темы
    Вы не можете отвечать на сообщения
    Вы не можете редактировать свои сообщения
    Вы не можете удалять свои сообщения
    Вы не можете голосовать в опросах
    Вы не можете прикреплять файлы к сообщениям
    Вы можете скачивать файлы