новый адрес пиратбит piratbit
Мега распродажа FORZA HORIZON 4 ULTIMATE+ВСЕ DLC+ОНЛАЙН всего за 499р. 349 руб. (супер цена). Внимание количество ограничено!!!

iTunes

1+1

iTunes

мы

iTunes

1

iTunes

Чернобыль

iTunes

Ральф против интернета

Лицензия

ПШазам

Лицензия

Игра престолов

Лицензия

30
pack

ВАЖНО

!!Акция!!

Alien_RageХит недели

RePack

Resident Evil 21

ИГРА 18+

pack

RePack

Metro:Exodus

!!Акция!!

Alien_Rage

RePack

fifa19

RePack

Assassins Creed: Odyssey

RePack

NEED FOR SPEED™ PAYBACK

3 сезон

9 сезон

Бесстыжие 9 сезон

Все сериалы

все сериалы на PB.wtf

RePack

FAR CRY 5
Ребята, катастрофически не хватает 1900р. для оплаты серверов за Октябрь (всвязи с блокировками трафик упал в 3 раза), 1-2р., выручайте.
  

Капитан Немо (Василий Левин) [1975, фантастика, приключения, WEBRip 720p от KORSAR] pb.wtf

Капитан Немо через торрент pb.wtf

Размер: 12.33 GB | Добавлен: 2 мес. 16 д. назад | Торрент скачан:12 раз
Скачать  

29-08-2019 16:38 Капитан Немо Скачать торрент  

Капитан Немо

Жанр: фантастика, приключения.
Год выпуска: 1975
Продолжительность: 01:12:59 + 01:07:11 + 01:04:41
Режиссёр: Василий Левин
В ролях: Николай Дупак, Юрий Меншагин, Владислав Дворжецкий, Юрий Родионов, Михаил Кононов, Владимир Талашко, Марианна Вертинская, Владимир Басов, Виктор Демерташ, Геннадий Нилов, Александр Пороховщиков, Гиви Тохадзе, Земфира Цахилова

Описание: Капитана Немо, персонажа романов Жюля Верна "20000 лье под водой" и "Паровой дом" знают все. Как и название его подводной лодки "Наутилус". Морское чудовище уничтожает военные корабли, и знаменитый профессор Аронакс отправляется в карательную экспедицию. После неудачного сражения с чудовищем корабль идет ко дну, а профессор, его слуга Консель и китобой Нед Лэнд попадают на подводный корабль и совершают удивительное путешествие под водой.

Релиз от:

Качество: WEBRip 720p
Формат видео: MKV

Видео: MPEG4 AVC, 964x720, 25 fps, ~ 7900 Кбит/с,
Аудио: AC3, 6 ch, 384 Кбит/с, AC3, 1 ch, 224 Кбит/с
Субтитры: Русские
Язык: Русский
  • x264 [info]: frame I:588 Avg QP:18.02 size:152013
  • x264 [info]: frame P:22811 Avg QP:19.41 size: 90153
  • x264 [info]: frame B:86081 Avg QP:21.24 size: 26636
  • x264 [info]: consecutive B-frames: 0.9% 1.2% 4.5% 22.5% 30.2% 38.1% 2.1% 0.4% 0.1% 0.0%
Общее
Уникальный идентификатор : 237307251548227814825555819094503654788 (0xB287B6D4597A8249AC63EB36FC490584)
Полное имя : D:\Капитан Немо_1975-WEBRip 720p_KORSAR\Немо-1.mkv
Формат : Matroska
Версия формата : Version 2
Размер файла : 4,44 Гбайт
Продолжительность : 1 ч. 12 м.
Общий поток : 8719 Кбит/сек
Название фильма : Капитан Немо_1975-WEBRip 720p_KORSAR
Дата кодирования : UTC 2019-08-18 11:12:52
Программа кодирования : mkvmerge v5.8.0 ('No Sleep / Pillow') built on Sep 2 2012 15:37:04
Библиотека кодирования : libebml v1.2.3 + libmatroska v1.3.0

Видео
Идентификатор : 1
Формат : AVC
Формат/Информация : Advanced Video Codec
Профиль формата : High@L4.1
Настройки формата : CABAC / 11 Ref Frames
Параметр CABAC формата : Да
Параметр RefFrames формата : 11 кадров
Идентификатор кодека : V_MPEG4/ISO/AVC
Продолжительность : 1 ч. 12 м.
Битрейт : 7937 Кбит/сек
Ширина : 964 пикселя
Высота : 720 пикселей
Соотношение сторон : 4:3
Режим частоты кадров : Постоянный
Частота кадров : 25,000 кадров/сек
Цветовое пространство : YUV
Субдискретизация насыщенности : 4:2:0
Битовая глубина : 8 бит
Тип развёртки : Прогрессивная
Бит/(Пиксели*Кадры) : 0.457
Размер потока : 4,05 Гбайт (91%)
Библиотека кодирования : x264 core 152 r2851kMod ba24899
Настройки программы : cabac=1 / ref=11 / deblock=1:-2:-2 / analyse=0x3:0x113 / me=umh / subme=10 / psy=1 / fade_compensate=0.00 / psy_rd=1.05:0.10 / mixed_ref=1 / me_range=40 / chroma_me=1 / trellis=2 / 8x8dct=1 / cqm=0 / deadzone=21,11 / fast_pskip=1 / chroma_qp_offset=-3 / threads=6 / lookahead_threads=1 / sliced_threads=0 / nr=0 / decimate=1 / interlaced=0 / bluray_compat=0 / constrained_intra=0 / bframes=9 / b_pyramid=2 / b_adapt=2 / b_bias=0 / direct=1 / weightb=1 / open_gop=0 / weightp=2 / keyint=250 / keyint_min=25 / scenecut=40 / intra_refresh=0 / rc=crf / mbtree=0 / crf=18.3000 / qcomp=0.63 / qpmin=0 / qpmax=30 / qpstep=4 / ip_ratio=1.40 / pb_ratio=1.30 / aq=1:1.00
Язык : English
Default : Да
Forced : Нет
Цветовой диапазон : Limited
Основные цвета : BT.709
Характеристики трансфера : BT.709
Коэффициенты матрицы : BT.709

Аудио #1
Идентификатор : 2
Формат : AC-3
Формат/Информация : Audio Coding 3
Коммерческое название : Dolby Digital
Идентификатор кодека : A_AC3
Продолжительность : 1 ч. 12 м.
Вид битрейта : Постоянный
Битрейт : 384 Кбит/сек
Каналы : 6 каналов
ChannelLayout : L R C LFE Ls Rs
Частота : 48,0 КГц
Частота кадров : 31,250 кадров/сек (1536 SPF)
Битовая глубина : 16 бит
Метод сжатия : С потерями
Размер потока : 200 Мбайт (4%)
Язык : Russian
ServiceKind/String : Complete Main
Default : Да
Forced : Нет

Аудио #2
Идентификатор : 3
Формат : AC-3
Формат/Информация : Audio Coding 3
Коммерческое название : Dolby Digital
Идентификатор кодека : A_AC3
Продолжительность : 1 ч. 12 м.
Вид битрейта : Постоянный
Битрейт : 224 Кбит/сек
Каналы : 1 канал
ChannelLayout : C
Частота : 48,0 КГц
Частота кадров : 31,250 кадров/сек (1536 SPF)
Битовая глубина : 16 бит
Метод сжатия : С потерями
Размер потока : 117 Мбайт (3%)
Язык : Russian
ServiceKind/String : Complete Main
Default : Нет
Forced : Нет

Текст
Идентификатор : 4
Формат : UTF-8
Идентификатор кодека : S_TEXT/UTF8
Идентификатор кодека/Информация : UTF-8 Plain Text
Язык : Russian
Default : Нет
Forced : Нет

Меню
00:00:00.000 : en:Chapter 1
00:05:09.960 : en:Chapter 2
00:11:19.800 : en:Chapter 3
00:15:55.680 : en:Chapter 4
00:23:11.760 : en:Chapter 5
00:28:49.440 : en:Chapter 6
00:34:57.840 : en:Chapter 7
00:41:38.280 : en:Chapter 8
00:47:38.520 : en:Chapter 9
00:54:33.000 : en:Chapter 10
01:02:08.880 : en:Chapter 11
01:11:33.960 : en:Chapter 12
pb.wtf



Скачать Капитан Немо через торрент https://b.radikal.ru/b02/1908/43/bbb8e51271ef.png Скачать фильм Капитан Немо через торрент бесплантно в хорошем качестве Описание: Капитана Немо, персонажа романов Жюля Верна "20000 лье под водой" и "Паровой дом" знают все. Как и название его подводной лодки ... 10 10 2
Info! Золотая раздача, скачанное не засчитывается.
Торрент: Зарегистрирован [2019-08-29 16:38] · скачан: 12 раз
Статус: √ проверено
Размер: 12.33 GB
Как cкачать? Как скачать Капитан Немо через торрент | qTorrent

% Раздел Тема Автор DL S | L
Кино СССР [ 2.91 GB ] Капитан Немо [1975 СССР DVDRip-AVC от AVP Studio] AVP Studio Скачать
1 | 0
Кино СССР [ 2.18 GB ] Капитан Немо [1975 СССР DVDRip от AVP Studio] AVP Studio Скачать
1 | 0
Кино СССР [ 3.28 GB ] Капитан Немо [1975 СССР DVDRip от AVP Studio] AVP Studio Скачать
1 | 0
Эротические игры [ 44 MB ] Nemo's Whores / Шлюшки Капитана Немо [лицензияRUSexydoll] 222r666 Скачать
2 | 0
Наши сериалы [ 4.3 GB ] Сердце капитана Немова / Серии: 1-8 из 8 [2009 DVDRip ] markfiter Скачать
1 | 0
Наши сериалы [ 4.3 GB ] Сердце капитана Немова [2009 DVDRip] -=Cherry=- Скачать
1 | 0


>> Регистрируемся здесь <<






Отзывы и комментарии о схеме читаем и пишем здесь: ---> Отзывы и комментарии о схеме

Новые благодарочки в телеграм довольных пользователей:
скриншот   скриншот   скриншот   скриншот   скриншот
    Дорогой пользователь! Огромная просьба, поблагодарите релизера, оцените раздачу и оставьте свои комментарий, если Вы скачали Капитан Немо через торрент бесплатно! Внесите свою лепту в развитие PiratBit!
    Комментировать посты могут только пользователи прошедшие не сложную регистрацию
    Показать сообщения:    

    Капитан Немо через торрент
    Скачать бесплатно Капитан Немо
    Капитан Немо скачать торрент
    Капитан Немо смотреть онлайн
    Cкачать фильм Капитан Немо бесплатно
    Капитан Немо скачать торрент в хорошем качестве
    Капитан Немо смотреть онлайн бесплатно в хорошем качестве


    Вы не можете начинать темы
    Вы не можете отвечать на сообщения
    Вы не можете редактировать свои сообщения
    Вы не можете удалять свои сообщения
    Вы не можете голосовать в опросах
    Вы не можете прикреплять файлы к сообщениям
    Вы можете скачивать файлы