новый адрес
Ссылка на приватное зеркало всего за 1$. Внимание количество ограничено!!!

iTunes

1+1

iTunes

мы

WEB-DL

1

iTunes

Чернобыль

iTunes

Ральф против интернета

Лицензия

ПШазам

Лицензия

Оно 2

Лицензия

30
pack

Вам бонус

ВАЖНО

!!Акция!!

Alien_RageХит недели

RePack

Resident Evil 21

ИГРА 18+

pack

RePack

jed

!!Акция!!

Alien_Rage

RePack

fifa19

RePack

Assassins Creed: Odyssey

RePack

NEED FOR SPEED™ PAYBACK

3 сезон

9 сезон

Бесстыжие 9 сезон

Все сериалы

все сериалы на PB.wtf

RePack

FAR CRY 5
Ребята, катастрофически не хватает 1900р. для оплаты серверов за Октябрь (всвязи с блокировками трафик упал в 3 раза), 1-2р., выручайте.
  

Обыкновенное чудо (Эраст Гарин, Хеся Локшина) [1964, Семейный, Сказка, DVDRip-AVC от KORSAR] pb.wtf

Обыкновенное чудо через торрент pb.wtf

Раздают: 1 [ 0 KB/s ]
Размер: 2.62 GB | Добавлен: 3 мес. 14 д. назад | Торрент скачан:4 раза
Скачать  

29-08-2019 16:45 Обыкновенное чудо Скачать торрент  

Обыкновенное чудо

Год выпуска: 1964
Жанр: Сказка
Продолжительность: 01:33:00
Режиссер: Эраст Гарин, Хеся Локшина
В ролях: Алексей Консовский, Нина Зорская, Олег Видов, Эраст Гарин, Нелли Максимова, Георгий Георгиу, Алексей Добронравов, Валентина Караваева, Виктор Авдюшко, Клавдия Лепанова, Светлана Коновалова, Евгений Весник, Георгий Милляр.

Описание: По пьесе Евгения Шварца "Обыкновенное чудо".
Волшебник встретил в лесу медведя и превратил его в человека. Принцесса должна полюбить и поцеловать юношу, чтобы тот смог вернуть свой прежний облик...

Релиз от:

Качество: DVDRip-AVC
Формат: MKV

Видео: MPEG-4 AVC, 694x572@740x572, 25 fps, 3664 Кбит/с
Аудио: AC3, 2 ch, 256 Кбит/с
Язык: Русский
x264 [info]: frame I:779 Avg QP:18.05 size: 84335
x264 [info]: frame P:38163 Avg QP:19.67 size: 40865
x264 [info]: frame B:101685 Avg QP:22.35 size: 9891
x264 [info]: consecutive B-frames: 3.3% 5.3% 17.1% 36.7% 20.0% 15.4% 1.5% 0.5% 0.1% 0.0%
=======================
Общее
Уникальный идентификатор : 250251817251396643390587566965653813816 (0xBC44BF3171369D2C93F8DF0ABFC4BA38)
Полное имя : D:\Обыкновенное чудо_1964-DVDRip-AVC_KORSAR.mkv
Формат : Matroska
Версия формата : Version 2
Размер файла : 2,62 Гбайт
Продолжительность : 1 ч. 33 м.
Общий поток : 4000 Кбит/сек
Название фильма : Обыкновенное чудо_1964-DVDRip-AVC_KORSAR
Дата кодирования : UTC 2019-08-19 17:32:17
Программа кодирования : mkvmerge v5.8.0 ('No Sleep / Pillow') built on Sep 2 2012 15:37:04
Библиотека кодирования : libebml v1.2.3 + libmatroska v1.3.0

Видео
Идентификатор : 1
Формат : AVC
Формат/Информация : Advanced Video Codec
Профиль формата : High@L4.1
Настройки формата : CABAC / 15 Ref Frames
Параметр CABAC формата : Да
Параметр RefFrames формата : 15 кадров
Идентификатор кодека : V_MPEG4/ISO/AVC
Продолжительность : 1 ч. 33 м.
Битрейт : 3664 Кбит/сек
Ширина : 694 пикселя
Высота : 572 пикселя
Соотношение сторон : 1,294
Режим частоты кадров : Постоянный
Частота кадров : 25,000 кадров/сек
Цветовое пространство : YUV
Субдискретизация насыщенности : 4:2:0
Битовая глубина : 8 бит
Тип развёртки : Прогрессивная
Бит/(Пиксели*Кадры) : 0.369
Размер потока : 2,40 Гбайт (92%)
Библиотека кодирования : x264 core 152 r2851kMod ba24899
Настройки программы : cabac=1 / ref=15 / deblock=1:-2:-2 / analyse=0x3:0x133 / me=umh / subme=10 / psy=1 / fade_compensate=0.00 / psy_rd=1.05:0.10 / mixed_ref=1 / me_range=32 / chroma_me=1 / trellis=2 / 8x8dct=1 / cqm=0 / deadzone=21,11 / fast_pskip=1 / chroma_qp_offset=-3 / threads=12 / lookahead_threads=2 / sliced_threads=0 / nr=0 / decimate=1 / interlaced=0 / bluray_compat=0 / constrained_intra=0 / bframes=9 / b_pyramid=2 / b_adapt=2 / b_bias=0 / direct=1 / weightb=1 / open_gop=0 / weightp=2 / keyint=250 / keyint_min=25 / scenecut=40 / intra_refresh=0 / rc=crf / mbtree=0 / crf=16.7000 / qcomp=0.63 / qpmin=0 / qpmax=30 / qpstep=4 / ip_ratio=1.40 / pb_ratio=1.30 / aq=1:1.00
Язык : English
Default : Да
Forced : Нет
Цветовой диапазон : Limited
Основные цвета : BT.601 PAL
Характеристики трансфера : BT.470 System B/G
Коэффициенты матрицы : BT.470 System B/G

Аудио
Идентификатор : 2
Формат : AC-3
Формат/Информация : Audio Coding 3
Коммерческое название : Dolby Digital
Идентификатор кодека : A_AC3
Продолжительность : 1 ч. 33 м.
Вид битрейта : Постоянный
Битрейт : 256 Кбит/сек
Каналы : 2 канала
ChannelLayout : L R
Частота : 48,0 КГц
Частота кадров : 31,250 кадров/сек (1536 SPF)
Битовая глубина : 16 бит
Метод сжатия : С потерями
Размер потока : 172 Мбайт (6%)
Язык : Russian
ServiceKind/String : Complete Main
Default : Да
Forced : Нет

Меню
00:00:00.000 : en:Chapter 1
00:15:39.560 : en:Chapter 2
00:31:21.280 : en:Chapter 3
00:46:32.640 : en:Chapter 4
01:02:07.120 : en:Chapter 5
01:17:37.560 : en:Chapter 6
pb.wtf



Скачать Обыкновенное чудо через торрент https://d.radikal.ru/d07/1908/91/996259cf00e9.png Скачать фильм Обыкновенное чудо через торрент бесплантно в хорошем качестве Описание: По пьесе Евгения Шварца "Обыкновенное чудо".Волшебник встретил в лесу медведя и превратил его в человека. Принцесса должна ... 10 10 1
Info! Золотая раздача, скачанное не засчитывается.
Торрент: Зарегистрирован [2019-08-29 16:45] · скачан: 4 раз
Статус: √ проверено
Размер: 2.62 GB
Как cкачать? Как скачать Обыкновенное чудо через торрент | qTorrent

% Раздел Тема Автор DL S | L
Кино СССР [ 2.75 GB ] Обыкновенное чудо [1978 мюзикл DVDRip] -Lexx- Скачать
1 | 0

28-11-2019 20:33  

Отключить всю рекламу на сайте

    Дорогой пользователь! Огромная просьба, поблагодарите релизера, оцените раздачу и оставьте свои комментарий, если Вы скачали Обыкновенное чудо через торрент бесплатно! Внесите свою лепту в развитие PiratBit!
    Комментировать посты могут только пользователи прошедшие не сложную регистрацию
    Показать сообщения:    

    Обыкновенное чудо через торрент
    Скачать бесплатно Обыкновенное чудо
    Обыкновенное чудо скачать торрент
    Обыкновенное чудо смотреть онлайн
    Cкачать фильм Обыкновенное чудо бесплатно
    Обыкновенное чудо скачать торрент в хорошем качестве
    Обыкновенное чудо смотреть онлайн бесплатно в хорошем качестве


    Вы не можете начинать темы
    Вы не можете отвечать на сообщения
    Вы не можете редактировать свои сообщения
    Вы не можете удалять свои сообщения
    Вы не можете голосовать в опросах
    Вы не можете прикреплять файлы к сообщениям
    Вы можете скачивать файлы