Ссылка на приватное зеркало нашего сайта всего за 1$. Внимание количество ограничено!!!

2 сезон

iTunes

1 сезон

1

2 сезон

2 сезон

iTunes

1 сезон

RePack

30

Ultimate

ВАЖНО

ИГРА 18+

pack

RePack

MK11
pack

Забери бонус

RePack

jed

!!Акция!!

Alien_Rage

RePack

fifa19

RePack

Assassins Creed: Odyssey

RePack

NEED FOR SPEED™ PAYBACK

4 сезон

9 сезон

Бесстыжие 9 сезон

Все сериалы

все сериалы на PB.wtf

RePack

FAR CRY 5
  

Наркоман Павлик / Сезон: 7 / Серии: 1-9 из 10 (Павел Радонцев) [2019, комедия, короткометражный, WEB-DL 1080p] pb.wtf

Наркоман Павлик через торрент pb.wtf

Раздают: 1 [ 0 KB/s ]
Размер: 5.28 GB | Добавлен: 9 мес. назад | Торрент скачан:27 раз
Скачать  

29-08-2019 17:19 Наркоман Павлик Скачать торрент  

Наркоман Павлик Год выпуска: 2019
Страна: Россия
Жанр: комедия, короткометражный
Продолжительность: ~00:25:00
Перевод: Не требуется
Субтитры: отсутствуют

Режиссер: Павел Радонцев

В ролях:

Павел Радонцев, Денис Гущин, Кирилл Демидов, Антон Батищев, Илья Сорокин, Андрей Савицкий, Регина Вожова, Иван Солдаткин, Ольга Лапушкина, Михаил Мартынов, Хамид Дышниев, Андрей Мирославский, Артём Веретенников, Николай Гусляров

Описание:

Короткометражный, юмористический сериал о приключениях Павлика, от участников проектов Comedy Club Samara Style, Comedy Club Saint-Petersburg. Сериал стремительно набирает популярность, фразы Павлика всё чаще встречаются на просторах рунета. "Здорова братиш!" - если вы слышали это и не знали откуда, смотрите. Очень угарная и ржачная тема!



Качество: WEB-DL 1080p
Формат: MPEG-4

Видео: MPEG-4 AVC, ~ 3 000 Кбит/с, 1920x1080
Аудио: AAC, 2 ch, 128 Кбит/с
скриншот  скриншот  скриншот  скриншот  

General
Complete name : E:\ПАВЛИК 7 сезон\ПАВЛИК 7 сезон 1 серия.mp4
Format : MPEG-4
Format profile : Base Media
Codec ID : isom (isom/iso2/avc1/mp41)
File size : 531 MiB
Duration : 19 min 35 s
Overall bit rate : 3 786 kb/s
Writing application : Lavf58.27.103

Video
ID : 1
Format : AVC
Format/Info : Advanced Video Codec
Format profile : High@L4
Format settings : CABAC / 3 Ref Frames
Format settings, CABAC : Yes
Format settings, RefFrames : 3 frames
Codec ID : avc1
Codec ID/Info : Advanced Video Coding
Duration : 19 min 35 s
Bit rate : 3 650 kb/s
Width : 1 920 pixels
Height : 1 080 pixels
Display aspect ratio : 16:9
Frame rate mode : Constant
Frame rate : 29.970 (30000/1001) FPS
Color space : YUV
Chroma subsampling : 4:2:0
Bit depth : 8 bits
Scan type : Progressive
Bits/(Pixel*Frame) : 0.059
Stream size : 511 MiB (96%)
Title : ISO Media file produced by Google Inc.
Writing library : x264 core 155 r2901 7d0ff22
Color range : Limited
Color primaries : BT.709
Transfer characteristics : BT.709
Matrix coefficients : BT.709

Audio
ID : 2
Format : AAC
Format/Info : Advanced Audio Codec
Format profile : LC
Codec ID : mp4a-40-2
Duration : 19 min 35 s
Bit rate mode : Constant
Bit rate : 128 kb/s
Channel(s) : 2 channels
Channel positions : Front: L R
Sampling rate : 44.1 kHz
Frame rate : 43.066 FPS (1024 SPF)
Compression mode : Lossy
Stream size : 17.9 MiB (3%)
Title : ISO Media file produced by Google Inc.
Language : English
Default : Yes
Alternate group : 1

При каждом добавлении создаётся новый торрент. Чтобы начать докачку новой серии, пользователям необходимо сделать следующее:
  • остановить скачивание,
  • удалить старый торрент у себя из клиента (старые серии удалять не надо),
  • скачать новый торрент и запустить его у себя в клиенте вместо старого, при этом указать клиенту путь в старую папку куда и должно происходить скачивание новых серий.

    Ваш клиент при этом должен произвести хеширование (проверку) старой папки (если не производит сам - помогите ему сделать это), и будет докачивать только те серии которых у вас ещё нет. Старые серии при этом не удаляются, а продолжают раздаваться!
    Eсли вы уже удалили старые серии, то предотвратить повторную закачку старых серий можно, отжав галочку в соответствующих местах при запуске нового торрента. По возможности, желательно не удалять старые серии как можно дольше чтобы релизёр не столько продолжал раздавать старые серии, а смог сконцентрироваться на новых.
  • pb.wtf



    Скачать Наркоман Павлик через торрент http://i78.fastpic.ru/big/2016/0723/bc/4e5e5835be85bf369e7b1300fdfa75bc.png Скачать фильм Наркоман Павлик через торрент бесплантно в хорошем качестве Описание: Короткометражный, юмористический сериал о приключениях Павлика, от участников проектов Comedy Club Samara Style, Comedy Club ... 5.6 10 14
    Торрент: Зарегистрирован [2020-02-16 20:41] · скачан: 27 раз
    Статус: √ проверено
    Размер: 5.28 GB
    Как cкачать? Как скачать Наркоман Павлик через торрент | qTorrent

    28-11-2019 20:33  

    Отключить всю рекламу на сайте

      Дорогой пользователь! Огромная просьба, поблагодарите релизера, оцените раздачу и оставьте свои комментарий, если Вы скачали Наркоман Павлик через торрент бесплатно! Внесите свою лепту в развитие PiratBit!
      Комментировать посты могут только пользователи прошедшие не сложную регистрацию
      Показать сообщения:    

      Наркоман Павлик через торрент
      Скачать бесплатно Наркоман Павлик
      Наркоман Павлик скачать торрент
      Наркоман Павлик смотреть онлайн
      Cкачать фильм Наркоман Павлик бесплатно
      Наркоман Павлик скачать торрент в хорошем качестве
      Наркоман Павлик смотреть онлайн бесплатно в хорошем качестве


      Вы не можете начинать темы
      Вы не можете отвечать на сообщения
      Вы не можете редактировать свои сообщения
      Вы не можете удалять свои сообщения
      Вы не можете голосовать в опросах
      Вы не можете прикреплять файлы к сообщениям
      Вы можете скачивать файлы