новый адрес
Ссылка на приватное зеркало всего за 1$. Внимание количество ограничено!!!

iTunes

1+1

iTunes

мы

WEB-DL

1

iTunes

Чернобыль

iTunes

Ральф против интернета

Лицензия

ПШазам

Лицензия

Оно 2

Лицензия

30
pack

Вам бонус

ВАЖНО

!!Акция!!

Alien_RageХит недели

RePack

Resident Evil 21

ИГРА 18+

pack

RePack

jed

!!Акция!!

Alien_Rage

RePack

fifa19

RePack

Assassins Creed: Odyssey

RePack

NEED FOR SPEED™ PAYBACK

3 сезон

9 сезон

Бесстыжие 9 сезон

Все сериалы

все сериалы на PB.wtf

RePack

FAR CRY 5
Ребята, катастрофически не хватает 1900р. для оплаты серверов за Октябрь (всвязи с блокировками трафик упал в 3 раза), 1-2р., выручайте.
  

Двойная жизнь / Doubles vies (Оливье Ассайас)[AMAZON][2018 г., драма, мелодрама, комедия, WEB-DLRip, Профессиональный многоголосый "iTunes"] pb.wtf

Двойная жизнь через торрент pb.wtf

Раздают: 3 [ 0 KB/s ]
Размер: 711 MB | Добавлен: 3 мес. 13 д. назад | Торрент скачан:52 раза
Скачать  

29-08-2019 18:27 Двойная жизнь Скачать торрент  

Двойная жизнь / Doubles vies
Год выпуска: 2018
Страна: Франция / CG Cinéma, Vortex Sutra, Arte France Cinéma
Жанр: драма, мелодрама, комедия
Продолжительность: 01:47:01
Перевод: Профессиональный многоголосый (iTunes)

Режиссер: Оливье Ассайас

rating

В ролях: Гийом Кане, Жюльет Бинош, Венсан Макен, Криста Тере, Нора Хамзави, Паскаль Греггори, Лоран Пуатрено, Сигрид Буази, Лайонел Дрей, Николас Бушо

Описание: Ален, успешный парижский издатель, изо всех сил пытающийся приспособиться к цифровой революции, испытывает серьезные сомнения по поводу новой рукописи Леонара, одного из его давних авторов. Селена, жена Алена, известная театральная актриса, придерживается противоположного мнения.

Качество: WEB-DLRip
Формат: AVI
Видео кодек: DivX
Аудио кодек: MP3
Видео: 640x344 (1.86:1), 24.000 fps, DivX Codec 4.x ~790 kbps avg, 0.15 bit/pixe
Аудио: 48 kHz, MPEG Layer 3, 2 ch, ~128.00 kbps avg
скриншот   скриншот   скриншот   скриншот   скриншот   скриншот   скриншот   скриншот  

Общее
Полное имя : F:\ФИЛЬМЫ\Двойная жизнь.2018.WEB-DLRip.AMAZON.avi
Формат : AVI
Формат/Информация : Audio Video Interleave
Размер файла : 711 Мбайт
Продолжительность : 1 ч. 47 м.
Общий поток : 928 Кбит/сек
Программа кодирования : VirtualDubMod 1.5.10.3 | www.virtualdub-fr.org || (build 2550/release)
Библиотека кодирования : VirtualDubMod build 2550/release

Видео
Идентификатор : 0
Формат : MPEG-4 Visual
Профиль формата : Advanced Simple@L5
Настройки формата : BVOP3 / GMC3 / QPel
Параметр BVOP формата : 3
Параметр QPel формата : Да
Параметр GMC формата : 3 точки перехода
Параметр матрицы формата : Default (MPEG)
Идентификатор кодека : DIVX
Идентификатор кодека/Информация : Project Mayo
Идентификатор кодека/Подсказка : DivX 4
Продолжительность : 1 ч. 47 м.
Битрейт : 791 Кбит/сек
Ширина : 640 пикселей
Высота : 344 пикселя
Соотношение сторон : 1,85:1
Частота кадров : 24,000 кадра/сек
Цветовое пространство : YUV
Субдискретизация насыщенности : 4:2:0
Битовая глубина : 8 бит
Тип развёртки : Прогрессивная
Метод сжатия : С потерями
Бит/(Пиксели*Кадры) : 0.150
Размер потока : 606 Мбайт (85%)
Библиотека кодирования : XviD 1.2.1 (UTC 2008-12-04)

Аудио
Идентификатор : 1
Формат : MPEG Audio
Версия формата : Version 1
Профиль формата : Layer 3
Настройки формата : Joint stereo / MS Stereo
Идентификатор кодека : 55
Идентификатор кодека/Подсказка : MP3
Продолжительность : 1 ч. 46 м.
Вид битрейта : Постоянный
Битрейт : 128 Кбит/сек
Каналы : 2 канала
Частота : 48,0 КГц
Частота кадров : 41,667 кадра/сек (1152 SPF)
Метод сжатия : С потерями
Размер потока : 98,0 Мбайт (14%)
Выравнивание : Соединение по промежуткам
Продолжительность промежутка : 42 мс. (1,00 видеокадр)
Время предзагрузки промежутка : 504 мс.
Библиотека кодирования : LAME3.99r
Настройки программы : -m j -V 4 -q 2 -lowpass 17 -b 128

pb.wtf



Скачать Двойная жизнь через торрент http://pic1.kartinco.top/images/12/cx8fv.jpg Скачать фильм Двойная жизнь через торрент бесплантно в хорошем качестве Описание: Ален, успешный парижский издатель, изо всех сил пытающийся приспособиться к цифровой революции, испытывает серьезные сомнения по ... 10 10 2
Торрент: Зарегистрирован [2019-08-29 18:27] · скачан: 52 раз
Статус: √ проверено
Размер: 711 MB
Как cкачать? Как скачать Двойная жизнь через торрент | qTorrent

% Раздел Тема Автор DL S | L
Фильмы (WEB-DL 720p, 1080p) [ 7.96 GB ] Двойная жизнь / Нон-фикшн / Doubles vies [2018 WEB-DL 1080p] MVO bober100 Скачать
2 | 0

28-11-2019 20:33  

Отключить всю рекламу на сайте

    Дорогой пользователь! Огромная просьба, поблагодарите релизера, оцените раздачу и оставьте свои комментарий, если Вы скачали Двойная жизнь через торрент бесплатно! Внесите свою лепту в развитие PiratBit!
    Комментировать посты могут только пользователи прошедшие не сложную регистрацию
    Показать сообщения:    

    Двойная жизнь через торрент
    Скачать бесплатно Двойная жизнь
    Двойная жизнь скачать торрент
    Двойная жизнь смотреть онлайн
    Cкачать фильм Двойная жизнь бесплатно
    Двойная жизнь скачать торрент в хорошем качестве
    Двойная жизнь смотреть онлайн бесплатно в хорошем качестве


    Вы не можете начинать темы
    Вы не можете отвечать на сообщения
    Вы не можете редактировать свои сообщения
    Вы не можете удалять свои сообщения
    Вы не можете голосовать в опросах
    Вы не можете прикреплять файлы к сообщениям
    Вы можете скачивать файлы