Anonymous, добрый вечер, присоединяйтесь к нам в Telegram!, здесь всегда актуальный адрес сайта, оперативная поддержка и многое другое!

>

5.5

iTunes

7.4

iTunes

7.9

iTunes

1

7.7

1 сезон

6.8

iTunes

7.3

1 сезон

13

6.7

1 сезон

8.3

RePack

30

ULTIMATE

pack

9.9

Лицензия

ВАЖНО

ИГРА 18+

pack

7.3

RePack

MK11

7.7

RePack

jed

7.8

RePack

fifa19

8.5

RePack

RDR2

RePack

NEED FOR SPEED™ PAYBACK

4 сезон

9 сезон

Бесстыжие 9 сезон

Все сериалы

все сериалы на PB.wtf

RePack

FAR CRY 5

Anonymous, добрый вечер, мы катастрофически не успеваем собрать деньги на оплату серверов, помогите нам пожалуйста 5,10,15р., для нас важна любая помощь . В качестве благодарности мы отключим Вам всю рекламу на сайте (укажите свой ник в строку Ваше имя)!

×
  
Magnet ссылка

Наша Russia / Сезон: 1-5 / Серии: 1-77 из 77 (Петр Буслов) [2006-2011, комедийное шоу, DVDRip-AVC] pb.wtf

Наша Russia через торрент pb.wtf

Размер: 22.56 GB | Добавлен: 2 года 1 мес. назад | Торрент скачан:94 раза
Смотреть онлайн Наша Russia | Скачать    Ребята, помогите собрать деньги на оплату серверов!!!

30-08-2019 02:19 Наша Russia Скачать торрент  

Наша Russia
Год выпуска: 2006-2011
Страна: Россия
Жанр: комедийное шоу
Продолжительность: ~ 00:20:00
Перевод: Не требуется
Субтитры: отсутствуют

Режиссер: Петр Буслов

rating

В ролях: Михаил Галустян, Сергей Светлаков

Описание: Комедийное телевизионное шоу о жизни типичных российских граждан и гостей из бывших советских республик.

Качество: DVDRip-AVC
Формат: MKV

Видео: 704x424@747x424, 702x452@749x450, ~ 1500-2000 Кбит/с
Аудио: AC3, 2 ch, 160 Кбит/с
скриншот  скриншот  скриншот  скриншот  скриншот  

скриншот  

Общее
Уникальный идентификатор : 251797769755787312648587682006396515835 (0xBD6E7C89509E5FFDA9C85F35434735FB)
Полное имя : D:\Наша Russia\сезон 1\1.mkv
Формат : Matroska
Версия формата : Version 2
Размер файла : 282 Мбайт
Продолжительность : 20 м. 20 с.
Общий поток : 1938 Кбит/сек
Дата кодирования : UTC 2012-12-20 16:30:11
Программа кодирования : mkvmerge v4.0.0 ('The Stars were mine') сборка от Jun 6 2010 16:18:42
Библиотека кодирования : libebml v1.0.0 + libmatroska v1.0.0

Видео
Идентификатор : 1
Формат : AVC
Формат/Информация : Advanced Video Codec
Профиль формата : High@L4.1
Параметр CABAC формата : Да
Параметр RefFrames формата : 4 кадра
Идентификатор кодека : V_MPEG4/ISO/AVC
Продолжительность : 20 м. 20 с.
Битрейт : 1739 Кбит/сек
Ширина : 702 пикселя
Высота : 452 пикселя
Соотношение сторон : 5:3
Режим частоты кадров : Постоянный
Частота кадров : 25,000 кадров/сек
Цветовое пространство : YUV
Субдискретизация насыщенности : 4:2:0
Битовая глубина : 8 бит
Тип развёртки : Прогрессивная
Бит/(Пиксели*Кадры) : 0.219
Размер потока : 253 Мбайт (90%)
Библиотека кодирования : x264 core 125 r2200 999b753
Настройки программы : cabac=1 / ref=3 / deblock=1:-2:-1 / analyse=0x3:0x113 / me=hex / subme=7 / psy=1 / psy_rd=1.00:0.00 / mixed_ref=1 / me_range=16 / chroma_me=1 / trellis=1 / 8x8dct=1 / cqm=0 / deadzone=21,11 / fast_pskip=1 / chroma_qp_offset=-2 / threads=3 / lookahead_threads=1 / sliced_threads=0 / nr=0 / decimate=1 / interlaced=0 / bluray_compat=0 / constrained_intra=0 / bframes=3 / b_pyramid=2 / b_adapt=1 / b_bias=0 / direct=1 / weightb=1 / open_gop=0 / weightp=2 / keyint=250 / keyint_min=25 / scenecut=40 / intra_refresh=0 / rc=cqp / mbtree=0 / qp=22 / ip_ratio=1.40 / pb_ratio=1.30 / aq=0
Default : Нет
Forced : Нет

Аудио
Идентификатор : 2
Формат : AC-3
Формат/Информация : Audio Coding 3
Расширение режима : CM (complete main)
Параметр Endianness формата : Big
Идентификатор кодека : A_AC3
Продолжительность : 20 м. 20 с.
Вид битрейта : Постоянный
Битрейт : 160 Кбит/сек
Каналы : 2 канала
Расположение каналов : Front: L R
Частота : 48,0 КГц
Частота кадров : 31,250 кадров/сек (1536 spf)
Метод сжатия : С потерями
Размер потока : 23,3 Мбайт (8%)
Default : Да
Forced : Нет

pb.wtf



Скачать Наша Russia через торрент http://s019.radikal.ru/i626/1204/9f/67be6159db1f.png Скачать, смотреть онлайн Наша Russia бесплантно в хорошем качестве Описание: Комедийное телевизионное шоу о жизни ичных российских граждан и гостей из бывших советских ... 10 10 5
Info! Золотая раздача, скачанное не засчитывается.
Торрент: Зарегистрирован [2019-08-30 02:19] · скачан: 94 раз
Статус: √ проверено
Размер: 22.56 GB
Как cкачать? Как скачать Наша Russia через торрент | UTorrent

28-11-2019 20:33  

Отключить всю рекламу на сайте

    Дорогой пользователь! Огромная просьба, поблагодарите релизера, оцените раздачу и оставьте свои комментарий, если Вы скачали Наша Russia через торрент бесплатно!
    Комментировать посты могут только пользователи прошедшие не сложную регистрацию
    Показать сообщения:    

    Наша Russia через торрент
    Скачать бесплатно Наша Russia
    Наша Russia скачать торрент
    Наша Russia смотреть онлайн
    Cкачать фильм Наша Russia бесплатно
    Наша Russia скачать торрент в хорошем качестве
    Наша Russia смотреть онлайн бесплатно в хорошем качестве


    Вы не можете начинать темы
    Вы не можете отвечать на сообщения
    Вы не можете редактировать свои сообщения
    Вы не можете удалять свои сообщения
    Вы не можете голосовать в опросах
    Вы не можете прикреплять файлы к сообщениям
    Вы можете скачивать файлы