Ссылка на приватное зеркало нашего сайта всего за 1$. Внимание количество ограничено!!!

2 сезон

iTunes

1 сезон

1

iTunes

iTunes

iTunes

1 сезон

RePack

30

ИГРА 18+

pack

ВАЖНО

!!Акция!!

Alien_RageХит недели

RePack

MK11
pack

Забери бонус

RePack

jed

!!Акция!!

Alien_Rage

RePack

fifa19

RePack

Assassins Creed: Odyssey

RePack

NEED FOR SPEED™ PAYBACK

4 сезон

9 сезон

Бесстыжие 9 сезон

Все сериалы

все сериалы на PB.wtf

RePack

FAR CRY 5
  

Практикант / Серии: 1-4 из 4 (Андрей Балашов) [2019, Детектив, криминал, WEB-DL 1080p] pb.wtf

Практикант через торрент pb.wtf

Раздают: 1 [ 0 KB/s ]
Размер: 8.7 GB | Добавлен: 1 год 1 мес. назад | Торрент скачан:49 раз
Скачать  

30-08-2019 18:38 Практикант Скачать торрент  

Практикант
Год выпуска: 2019
Страна: Россия
Жанр: Детектив , криминал
Продолжительность: ~ 00:49:00
Субтитры: отсутствуют

Режиссер: Андрей Балашов

В ролях: Дмитрий Лавров, Владимир Петров, Екатерина Панасюк, Виталий Кравченко, Анвар Либабов, Андрей Носков, Сергей Векслер

Описание: Лучшего выпускника Академии МВД Антонова определяют оперативником в группу к матерому следователю Егорову. Отношения начальника и подчиненного сразу складываются непросто. Но опыт и мудрость одного, дополненная горячностью, напором и нетерпением другого, становятся незаменимыми в сложном и опасном деле — поиске серийного маньяка…

Качество: WEB-DL 1080p
Формат: MKV

Видео: 1920х1080 (16:9), 25 fps, AVC MPEG-4 (x264), High@L4.1 ~ 6000 kbps avg, 0.152 bit/pixel
Аудио: AC3 Dolby Digital, 48.0 kHz, 2/0 (L,R) ch, 192 kbps
скриншот  скриншот  скриншот  скриншот  

General
Unique ID : 185266739131575647451739378948696672487 (0x8B6113789E6EB9FF992419E42A0388E7)
Complete name : D:\Praktikant.2019.WEB-DL.(1080p).ExKinoRay\Praktikant.(01.seriya.iz.04).2019.WEB-DL.(1080p).ExKinoRay.mkv
Format : Matroska
Format version : Version 4 / Version 2
File size : 2.15 GiB
Duration : 49 min 54 s
Overall bit rate mode : Constant
Overall bit rate : 6 176 kb/s
Encoded date : UTC 2019-08-30 17:00:32
Writing application : mkvmerge v6.9.1 ('Blue Panther') 64bit built on Apr 18 2014 18:23:38
Writing library : libebml v1.3.0 + libmatroska v1.4.1

Video
ID : 1
Format : AVC
Format/Info : Advanced Video Codec
Format profile : High@L4.1
Format settings : 2 Ref Frames
Format settings, CABAC : No
Format settings, ReFrames : 2 frames
Codec ID : V_MPEG4/ISO/AVC
Duration : 49 min 54 s
Bit rate mode : Constant
Bit rate : 6 000 kb/s
Width : 1 920 pixels
Height : 1 080 pixels
Display aspect ratio : 16:9
Frame rate mode : Constant
Frame rate : 25.000 FPS
Standard : PAL
Color space : YUV
Chroma subsampling : 4:2:0
Bit depth : 8 bits
Scan type : Progressive
Bits/(Pixel*Frame) : 0.116
Stream size : 2.04 GiB (95%)
Default : Yes
Forced : No
Color range : Limited
Color primaries : BT.709
Transfer characteristics : BT.709
Matrix coefficients : BT.709

Audio
ID : 2
Format : AC-3
Format/Info : Audio Coding 3
Codec ID : A_AC3
Duration : 49 min 54 s
Bit rate mode : Constant
Bit rate : 192 kb/s
Channel(s) : 2 channels
Channel positions : Front: L R
Sampling rate : 48.0 kHz
Frame rate : 31.250 FPS (1536 SPF)
Bit depth : 16 bits
Compression mode : Lossy
Stream size : 68.5 MiB (3%)
Language : Russian
Service kind : Complete Main
Default : Yes
Forced : No

pb.wtf



Скачать Практикант через торрент https://i87.fastpic.ru/big/2019/0830/3f/bfe1e25f3136f67604ad6eeec083633f.jpg Скачать фильм Практикант через торрент бесплантно в хорошем качестве Описание: Лучшего выпускника Академии МВД Антонова определяют оперативником в группу к матерому следователю Егорову. Отношения начальника и ... 9.5 10 6
Торрент: Зарегистрирован [2019-08-31 04:42] · скачан: 49 раз
Статус: √ проверено
Размер: 8.7 GB
Как cкачать? Как скачать Практикант через торрент | qTorrent

% Раздел Тема Автор DL S | L
Наши сериалы [ 5.9 GB ] Практикант / Серии: 1-4 из 4 [2019 WEB-DL 720p] bober100 Скачать
1 | 0
Наши сериалы [ 3.09 GB ] Практикант / Серии: 1-4 из 4 [2019 WEBRip-AVC] bober100 Скачать
1 | 0
Наши сериалы [ 2.34 GB ] Практикант / Серии: 1-4 из 4 [2019 SATRip] bober100 Скачать
2 | 0
Наши сериалы [ 2.51 GB ] Практикант / Серии: 1-4 из 4 [2019 SATRip-AVC] aleksan55 Скачать
1 | 0

28-11-2019 20:33  

Отключить всю рекламу на сайте

    Дорогой пользователь! Огромная просьба, поблагодарите релизера, оцените раздачу и оставьте свои комментарий, если Вы скачали Практикант через торрент бесплатно! Внесите свою лепту в развитие PiratBit!
    Комментировать посты могут только пользователи прошедшие не сложную регистрацию
    Показать сообщения:    

    Практикант через торрент
    Скачать бесплатно Практикант
    Практикант скачать торрент
    Практикант смотреть онлайн
    Cкачать фильм Практикант бесплатно
    Практикант скачать торрент в хорошем качестве
    Практикант смотреть онлайн бесплатно в хорошем качестве


    Вы не можете начинать темы
    Вы не можете отвечать на сообщения
    Вы не можете редактировать свои сообщения
    Вы не можете удалять свои сообщения
    Вы не можете голосовать в опросах
    Вы не можете прикреплять файлы к сообщениям
    Вы можете скачивать файлы