2 сезон

iTunes

MVO

1

2 сезон

iTunes

iTunes

1 сезон

RePack

30

Новинка

ВАЖНО

ИГРА 18+

pack

RePack

MK11
pack

Легкие деньги

RePack

jed

RePack

fifa19

RePack

RDR2

RePack

NEED FOR SPEED™ PAYBACK

4 сезон

9 сезон

Бесстыжие 9 сезон

Все сериалы

все сериалы на PB.wtf

RePack

FAR CRY 5

Anonymous, добрый вечер, мы не успеваем собрать деньги на оплату серверов за декабрь и январь, помогите нам пожалуйста в это трудное время. В качестве благодарности мы отключим Вам всю рекламу на сайте (укажите свой ник в строку Ваше имя)!

×
  
Magnet ссылка

Ладья / The Rook / Сезон: 1 / Серии: 1-8 из 8 (Чина Му-Ен, Кари Скогланд, Суну Гонера) [2019, фэнтези, триллер, драма, WEB-DL 720p] 2xMVO [Novamedia, Lostfilm] pb.wtf

Ладья через торрент pb.wtf

Размер: 16.74 GB | Добавлен: 1 год 4 мес. назад | Торрент скачан:15 раз
Скачать  

30-08-2019 19:26 Ладья Скачать торрент  

Ладья / The Rook Год выпуска: 2019
Страна: США, Starz, Lions Gate Television, Character 7, Liberty Global, Carpool
Жанр: фэнтези, триллер, драма

Продолжительность: 00:50:00
Перевод: Профессиональный (многоголосый закадровый) Novamedia
Перевод: Профессиональный (многоголосый закадровый) Lostfilm

Субтитры: Русские (Forced, Full), английские (Full, SDH)

Режиссёр: Чина Му-Ен, Кари Скогланд, Суну Гонера, Ребекка Джонсон

В ролях: Эмма Гринвелл, Джон Флетчер, Адриан Лестер, Рут Маделей, Оливия Манн, Ронан Рафтери, Джоэли Ричардсон, Джошуа Сквайр, Катрин Стэдмен

Описание: Сверхспособности — это не только геройство в духе «Людей Икс», но и проблемы со спецслужбами. Так, по крайней мере, обстоят дела у главной героини сериала от Starz «Ладья» Мифанви Томас (Эмма Гринвелл из «Бесстыжих»). В комплекте с суперсилой ей досталась амнезия: однажды проснувшись в парке среди трупов, она вынуждена самостоятельно выяснить, кто запустил цепь таинственных убийств. И это не так-то просто, когда находишься под прицелом секретной организации. Основанная на успешном романе Дэниела О’Мэлли, «Ладья» — лихо задуманный сплав триллера, драмы и фэнтези, пытающийся сказать что-то новое в жанре историй о супергероях. Кстати, о них: на втором плане в сериале можно увидеть Оливию Манн, звезду тех самых «Людей Икс».

rating

Качество: WEB-DL 720p | The.Rook.S01.720p.AMZN.WEB-DL.DDP5.1.H.264-KiNGS
Контейнер: MKV

Видео: AVC, 1280x720 (16:9), ~ 3150 kbps, 23.976 fps
Аудио 1: AC3, 48 kHz, 6 ch, 640 kbps - RUS - Novamedia
Аудио 2: AC3, 48 kHz, 6 ch, 640 kbps - RUS - Lostfilm
Аудио 3: AC3, 48 kHz, 6 ch, 640 kbps - ENG


Реклама: Отсутствует

Спасибо:
01. Глава 1 / Chapter 1 (30.06.2019)
02. Глава 2 / Chapter 2 (07.07.2019)
03. Глава 3 / Chapter 3 (14.07.2019)
04. Глава 4 / Chapter 4 (21.07.2019)
05. Глава 5 / Chapter 5 (28.07.2019)
06. Глава 6 / Chapter 6 (04.07.2019)
07. Глава 7 / Chapter 7 (11.08.2019)
08. Глава 8 / Chapter 8 (18.08.2019)
Общее
Уникальный идентификатор                 : 224935801039272665502904487432600632377 (0xA9390F39FDC385C480D06D0B4FAF3C39)
Полное имя                               : Ладья. Сериал. 2019. MVO. EniaHD (WEB-DL 720p)\The.Rook.s01e01. Глава 1.mkv
Формат                                   : Matroska
Версия формата                           : Version 2
Размер файла                             : 1,68 Гбайт
Продолжительность                        : 50 м. 46 с.
Общий поток                              : 4739 Кбит/сек
Дата кодирования                         : UTC 2019-07-08 09:52:12
Программа кодирования                    : mkvmerge v6.9.1 ('Blue Panther') 32bit built on Apr 18 2014 18:15:44
Библиотека кодирования                   : libebml v1.3.0 + libmatroska v1.4.1

Видео
Идентификатор                            : 1
Формат                                   : AVC
Формат/Информация                        : Advanced Video Codec
Профиль формата                          : High@L3.1
Настройки формата                        : CABAC / 4 Ref Frames
Параметр CABAC формата                   : Да
Параметр RefFrames формата               : 4 кадра
Идентификатор кодека                     : V_MPEG4/ISO/AVC
Продолжительность                        : 50 м. 46 с.
Вид битрейта                             : Постоянный
Битрейт                                  : 3173 Кбит/сек
Номинальный битрейт                      : 6000 Кбит/сек
Ширина                                   : 1280 пикселей
Высота                                   : 720 пикселей
Соотношение сторон                       : 16:9
Режим частоты кадров                     : Постоянный
Частота кадров                           : 23,976 (24000/1001) кадра/сек
Цветовое пространство                    : YUV
Субдискретизация насыщенности            : 4:2:0
Битовая глубина                          : 8 бит
Тип развёртки                            : Прогрессивная
Бит/(Пиксели*Кадры)                      : 0.144
Размер потока                            : 1,13 Гбайт (67%)
Язык                                     : English
Default                                  : Да
Forced                                   : Нет
Цветовой диапазон                        : Limited
Основные цвета                           : BT.709
Характеристики трансфера                 : BT.709
Коэффициенты матрицы                     : BT.709

Аудио #1
Идентификатор                            : 2
Формат                                   : AC-3
Формат/Информация                        : Audio Coding 3
Коммерческое название                    : Dolby Digital
Идентификатор кодека                     : A_AC3
Продолжительность                        : 50 м. 46 с.
Вид битрейта                             : Постоянный
Битрейт                                  : 192 Кбит/сек
Каналы                                   : 2 канала
Channel layout                           : L R
Частота                                  : 48,0 КГц
Частота кадров                           : 31,250 кадров/сек (1536 SPF)
Битовая глубина                          : 16 бит
Метод сжатия                             : С потерями
Размер потока                            : 69,7 Мбайт (4%)
Заголовок                                : Novamedia
Язык                                     : Russian
ServiceKind/String                       : Complete Main
Default                                  : Да
Forced                                   : Нет

Аудио #2
Идентификатор                            : 3
Формат                                   : AC-3
Формат/Информация                        : Audio Coding 3
Коммерческое название                    : Dolby Digital
Идентификатор кодека                     : A_AC3
Продолжительность                        : 50 м. 46 с.
Вид битрейта                             : Постоянный
Битрейт                                  : 640 Кбит/сек
Каналы                                   : 6 каналов
Channel layout                           : L R C LFE Ls Rs
Частота                                  : 48,0 КГц
Частота кадров                           : 31,250 кадров/сек (1536 SPF)
Битовая глубина                          : 16 бит
Метод сжатия                             : С потерями
Размер потока                            : 232 Мбайт (14%)
Заголовок                                : Lostfilm
Язык                                     : Russian
ServiceKind/String                       : Complete Main
Default                                  : Нет
Forced                                   : Нет

Аудио #3
Идентификатор                            : 4
Формат                                   : AC-3
Формат/Информация                        : Audio Coding 3
Коммерческое название                    : Dolby Digital
Идентификатор кодека                     : A_AC3
Продолжительность                        : 50 м. 46 с.
Вид битрейта                             : Постоянный
Битрейт                                  : 640 Кбит/сек
Каналы                                   : 6 каналов
Channel layout                           : L R C LFE Ls Rs
Частота                                  : 48,0 КГц
Частота кадров                           : 31,250 кадров/сек (1536 SPF)
Битовая глубина                          : 16 бит
Метод сжатия                             : С потерями
Размер потока                            : 232 Мбайт (14%)
Язык                                     : English
ServiceKind/String                       : Complete Main
Default                                  : Нет
Forced                                   : Нет

Текст #1
Идентификатор                            : 5
Формат                                   : UTF-8
Идентификатор кодека                     : S_TEXT/UTF8
Идентификатор кодека/Информация          : UTF-8 Plain Text
Заголовок                                : Forced
Язык                                     : Russian
Default                                  : Да
Forced                                   : Да

Текст #2
Идентификатор                            : 6
Формат                                   : UTF-8
Идентификатор кодека                     : S_TEXT/UTF8
Идентификатор кодека/Информация          : UTF-8 Plain Text
Язык                                     : Russian
Default                                  : Нет
Forced                                   : Нет

Текст #3
Идентификатор                            : 7
Формат                                   : UTF-8
Идентификатор кодека                     : S_TEXT/UTF8
Идентификатор кодека/Информация          : UTF-8 Plain Text
Заголовок                                : SDH
Язык                                     : English
Default                                  : Нет
Forced                                   : Нет
pb.wtf



Скачать Ладья через торрент https://funkyimg.com/i/2V9fh.jpg Скачать фильм Ладья через торрент бесплантно в хорошем качестве Описание: Сверхспособности — это не только геройство в духе «Людей Икс», но и проблемы со спецслужбами. Так, по крайней мере, обстоят дела ... 10 10 2
Торрент: Зарегистрирован [2019-08-30 19:26] · скачан: 15 раз
Статус: √ проверено
Размер: 16.74 GB
Как cкачать? Как скачать Ладья через торрент | UTorrent

% Раздел Тема Автор DL S | L
Зарубежные сериалы [ 4.87 GB ] Ладья / The Rook / Сезон: 1 / Серии: 1-8 из 8 [2019 WEB-DLRip] MVO [Jaskier] bober100 Скачать
1 | 0
Зарубежные сериалы [ 13.37 GB ] Ладья / The Rook / Сезон: 1 / Серии: 1-8 из 8 [2019 . WEB-DL 720p] MVO [Jaskier] bober100 Скачать
1 | 0
Зарубежные сериалы [ 25.52 GB ] Ладья / The Rook / Сезон: 1 / Серии: 1-8 из 8 [2019 WEB-DL 1080p] MVO [Jaskier] bober100 Скачать
1 | 0
Зарубежные сериалы [ 27.01 GB ] Ладья / The Rook / Сезон: 1 / Серии: 1-8 из 8 [2019 WEB-DL 1080p] MVO [Lostfilm] bober100 Скачать
1 | 0
Зарубежные сериалы [ 25.7 GB ] Ладья / The Rook / Сезон: 1 / Серии: 1-8 из 8 [2019 WEB-DL 1080p] MVO [HDRezka Studio] bober100 Скачать
1 | 0
Зарубежные сериалы [ 5.48 GB ] Ладья / The Rook / Сезон: 1 / Серии: 1-8 из 8 [2019 WEBRip] MVO [HDRezka Studio] bober100 Скачать
2 | 0
Зарубежные сериалы [ 5.44 GB ] Ладья / The Rook / Сезон: 1 / Серии: 1-8 из 8 [2019 WEBRip 720p] [MVO] killermax2013 Скачать
1 | 0

28-11-2019 20:33  

Отключить всю рекламу на сайте

    Дорогой пользователь! Огромная просьба, поблагодарите релизера, оцените раздачу и оставьте свои комментарий, если Вы скачали Ладья через торрент бесплатно! Внесите свою лепту в развитие PiratBit!
    Комментировать посты могут только пользователи прошедшие не сложную регистрацию
    Показать сообщения:    

    Ладья через торрент
    Скачать бесплатно Ладья
    Ладья скачать торрент
    Ладья смотреть онлайн
    Cкачать фильм Ладья бесплатно
    Ладья скачать торрент в хорошем качестве
    Ладья смотреть онлайн бесплатно в хорошем качестве


    Вы не можете начинать темы
    Вы не можете отвечать на сообщения
    Вы не можете редактировать свои сообщения
    Вы не можете удалять свои сообщения
    Вы не можете голосовать в опросах
    Вы не можете прикреплять файлы к сообщениям
    Вы можете скачивать файлы