2 сезон

iTunes

1 сезон

1

iTunes

iTunes

iTunes

1 сезон

RePack

30

ИГРА 18+

pack

ВАЖНО

!!Акция!!

Alien_RageХит недели

RePack

MK11
pack

Забери бонус

RePack

jed

!!Акция!!

Alien_Rage

RePack

fifa19

RePack

Assassins Creed: Odyssey

RePack

NEED FOR SPEED™ PAYBACK

4 сезон

9 сезон

Бесстыжие 9 сезон

Все сериалы

все сериалы на PB.wtf

RePack

FAR CRY 5
  

Практикант / Серии: 1-4 из 4 (Андрей Балашов) [2019, Детектив, криминал, WEBRip-AVC] pb.wtf

Практикант через торрент pb.wtf

Размер: 3.09 GB | Добавлен: 1 год 1 мес. назад | Торрент скачан:116 раз
Скачать  

31-08-2019 04:16 Практикант Скачать торрент  

Практикант
Год выпуска: 2019
Страна: Россия
Жанр: Детектив , криминал
Продолжительность: ~ 00:49:00
Субтитры: отсутствуют

Режиссер: Андрей Балашов

В ролях: Дмитрий Лавров, Владимир Петров, Екатерина Панасюк, Виталий Кравченко, Анвар Либабов, Андрей Носков, Сергей Векслер

Описание: Лучшего выпускника Академии МВД Антонова определяют оперативником в группу к матерому следователю Егорову. Отношения начальника и подчиненного сразу складываются непросто. Но опыт и мудрость одного, дополненная горячностью, напором и нетерпением другого, становятся незаменимыми в сложном и опасном деле — поиске серийного маньяка…

Качество: WEBRip-AVC
Формат: MKV

Видео: MPEG-4 AVC, ~ 2000 Кбит/с, 1024x576, 25 кадр/с
Аудио: AC3 Dolby Digital, 48.0 kHz, 2/0 (L,R) ch, 192 kbps
скриншот  скриншот  скриншот  скриншот  

Общее
Уникальный идентификатор : 220741540162987429224046609158177956240 (0xA611463315EEB3C09BCDF718611A2190)
Полное имя : C:\Praktikant.(2019).WEBRip.(AVC).Files-x\01.Praktikant.(2019).WEBRip.(AVC).by.Серый1779.Files-x.mkv
Формат : Matroska
Версия формата : Version 2
Размер файла : 783 Мбайт
Продолжительность : 49 м. 54 с.
Общий поток : 2193 Кбит/сек
Дата кодирования : UTC 2019-08-30 23:26:11
Программа кодирования : mkvmerge v7.8.0 (''River Man'') 32bit built on Apr 3 2015 12:11:22
Библиотека кодирования : libebml v1.3.1 + libmatroska v1.4.2

Видео
Идентификатор : 1
Формат : AVC
Формат/Информация : Advanced Video Codec
Профиль формата : High@L4.1
Настройки формата : CABAC / 9 Ref Frames
Параметр CABAC формата : Да
Параметр RefFrames формата : 9 кадров
Идентификатор кодека : V_MPEG4/ISO/AVC
Продолжительность : 49 м. 54 с.
Битрейт : 2000 Кбит/сек
Ширина : 1024 пикселя
Высота : 576 пикселей
Соотношение сторон : 16:9
Режим частоты кадров : Постоянный
Частота кадров : 25,000 кадров/сек
Цветовое пространство : YUV
Субдискретизация насыщенности : 4:2:0
Битовая глубина : 8 бит
Тип развёртки : Прогрессивная
Бит/(Пиксели*Кадры) : 0.136
Размер потока : 699 Мбайт (89%)
Библиотека кодирования : x264 core 146 r2538 121396c
Настройки программы : cabac=1 / ref=9 / deblock=1:-2:-1 / analyse=0x3:0x133 / me=umh / subme=9 / psy=1 / psy_rd=1.00:0.15 / mixed_ref=1 / me_range=32 / chroma_me=1 / trellis=2 / 8x8dct=1 / cqm=0 / deadzone=21,11 / fast_pskip=0 / chroma_qp_offset=-3 / threads=18 / lookahead_threads=3 / sliced_threads=0 / nr=0 / decimate=1 / interlaced=0 / bluray_compat=0 / constrained_intra=0 / bframes=9 / b_pyramid=2 / b_adapt=2 / b_bias=0 / direct=1 / weightb=1 / open_gop=0 / weightp=2 / keyint=250 / keyint_min=25 / scenecut=40 / intra_refresh=0 / rc=2pass / mbtree=0 / bitrate=2000 / ratetol=1.0 / qcomp=0.60 / qpmin=0 / qpmax=69 / qpstep=4 / cplxblur=20.0 / qblur=0.5 / ip_ratio=1.40 / pb_ratio=1.30 / aq=2:1.00
Default : Да
Forced : Нет
Цветовой диапазон : Limited
Основные цвета : BT.709
Характеристики трансфера : BT.709
Коэффициенты матрицы : BT.709

Аудио
Идентификатор : 2
Формат : AC-3
Формат/Информация : Audio Coding 3
Коммерческое название : Dolby Digital
Идентификатор кодека : A_AC3
Продолжительность : 49 м. 54 с.
Вид битрейта : Постоянный
Битрейт : 192 Кбит/сек
Каналы : 2 канала
ChannelLayout : L R
Частота : 48,0 КГц
Частота кадров : 31,250 кадров/сек (1536 SPF)
Битовая глубина : 16 бит
Метод сжатия : С потерями
Размер потока : 68,5 Мбайт (9%)
ServiceKind/String : Complete Main
Default : Да
Forced : Нет

pb.wtf



Скачать Практикант через торрент https://i86.fastpic.ru/big/2019/0830/80/f5e3a45c43f3e1173c672ae8a5e30080.jpg Скачать фильм Практикант через торрент бесплантно в хорошем качестве Описание: Лучшего выпускника Академии МВД Антонова определяют оперативником в группу к матерому следователю Егорову. Отношения начальника и ... 10 10 8
Торрент: Зарегистрирован [2019-08-31 06:25] · скачан: 116 раз
Статус: √ проверено
Размер: 3.09 GB
Как cкачать? Как скачать Практикант через торрент | qTorrent

% Раздел Тема Автор DL S | L
Наши сериалы [ 5.9 GB ] Практикант / Серии: 1-4 из 4 [2019 WEB-DL 720p] bober100 Скачать
1 | 0
Наши сериалы [ 8.7 GB ] Практикант / Серии: 1-4 из 4 [2019 WEB-DL 1080p] bober100 Скачать
1 | 0
Наши сериалы [ 2.34 GB ] Практикант / Серии: 1-4 из 4 [2019 SATRip] bober100 Скачать
2 | 0
Наши сериалы [ 2.51 GB ] Практикант / Серии: 1-4 из 4 [2019 SATRip-AVC] aleksan55 Скачать
1 | 0

28-11-2019 20:33  

Отключить всю рекламу на сайте

    Дорогой пользователь! Огромная просьба, поблагодарите релизера, оцените раздачу и оставьте свои комментарий, если Вы скачали Практикант через торрент бесплатно! Внесите свою лепту в развитие PiratBit!
    Комментировать посты могут только пользователи прошедшие не сложную регистрацию
    Показать сообщения:    

    Практикант через торрент
    Скачать бесплатно Практикант
    Практикант скачать торрент
    Практикант смотреть онлайн
    Cкачать фильм Практикант бесплатно
    Практикант скачать торрент в хорошем качестве
    Практикант смотреть онлайн бесплатно в хорошем качестве


    Вы не можете начинать темы
    Вы не можете отвечать на сообщения
    Вы не можете редактировать свои сообщения
    Вы не можете удалять свои сообщения
    Вы не можете голосовать в опросах
    Вы не можете прикреплять файлы к сообщениям
    Вы можете скачивать файлы