Всегда рабочее зеркало без VPN и Proxy просто перед .vidak.icu напиши любое слово или цифру, Пример http://sp5p.vidak.icu

MVO

2 сезон

2 сезон

1

1 сезон

iTunes

2 сезон

13

1 сезон

Deluxe

pack

Рекомендуем

Пиратка

30

ВАЖНО

RePack

MK11

RePack

jed

RePack

fifa19

RePack

RDR2

RePack

NEED FOR SPEED™ PAYBACK

Кинопоиск HD

6 сезон

 Острые козырьки 6 сезон

Все сериалы

все сериалы на PB.wtf

RePack

FAR CRY 5

Anonymous, нам критически не хватает 5601 руб. на оплату серверов и переферии за Апрель, помоги нам пожалуйста, вся надежда только на тебя. В благодарность мы отключим тебе всю рекламу на сайте!

×
  
Magnet ссылка

Женский бойцовский клуб / Female Fight Club (Мигель А. Феррер) [2017, Боевик, драма, BDRip 1080p] MVO [iTunes] pb.wtf

Женский бойцовский клуб через торрент pb.wtf

Размер: 6.8 GB | Добавлен: 2 года 8 мес. назад | Торрент скачан:67 раз
Смотреть онлайн Женский бойцовский клуб | Скачать    Ребята, помогите собрать деньги на оплату серверов!!!

31-08-2019 08:31 Женский бойцовский клуб Скачать торрент  

Женский бойцовский клуб / Female Fight Club
Год выпуска: 2017
Страна: США
Жанр: Боевик, драма
Продолжительность: 01:30:01
Перевод: Профессиональный (многоголосый) | iTunes
Субтитры: отсутствуют

Режиссер: Мигель А. Феррер

rating

В ролях: Эми Джонстон, Кортни Палм, Рей Гойос, Шон Фэрис, Дольф Лундгрен, Шон Браун, Леви Трэн, Фолаке Оловофойеку, Мишель Джубили Гонсалес

Описание: Спустя пять лет Бэкс по прозвищу Зверюга, возвращается в родной городок, чтобы снова, как и пять лет назад, помочь своей сестре разобраться с её проблемами. На этот раз сестра задолжала местному организатору боёв без правил, и единственный способ отдать долг - заработать деньги, победив в ежегодном чемпионате по боям без правил, одолев самого главного и страшного противника - Бычару Клэр. Но все оказывается не так просто, да и сама Бэкс - отнюдь не положительный герой.

Качество: BDRip 1080p
Формат: MKV

Видео: MPEG-4 AVC, 9645 Кбит/с, 1920x800
Аудио#1: Русский (AC3, 6 ch, 384 Кбит/с)
Аудио#2: английский (DTS, 6 ch, 768 Кбит/с)
скриншот  скриншот  скриншот  скриншот  

Общее
Уникальный идентификатор : 236508562237518040540509395438320995278 (0xB1EDE467FCC20ADA83293E62B543CBCE)
Полное имя : Boytsovskiy.zhenskiy.klub.2017.BDRip.1080p.ELEKTRI4KA.UNIONGANG.mkv
Формат : Matroska
Версия формата : Version 4
Размер файла : 6,80 Гбайт
Продолжительность : 1 ч. 30 м.
Общий поток : 10,8 Мбит/сек
Дата кодирования : UTC 2019-08-30 21:24:54
Программа кодирования : mkvmerge v8.3.0 ('Over the Horizon') 64bit
Библиотека кодирования : libebml v1.3.1 + libmatroska v1.4.2

Видео
Идентификатор : 1
Формат : AVC
Формат/Информация : Advanced Video Codec
Профиль формата : High@L4.1
Настройки формата : CABAC / 5 Ref Frames
Параметр CABAC формата : Да
Параметр RefFrames формата : 5 кадров
Идентификатор кодека : V_MPEG4/ISO/AVC
Продолжительность : 1 ч. 30 м.
Битрейт : 9645 Кбит/сек
Ширина : 1920 пикселей
Высота : 800 пикселей
Соотношение сторон : 2,40:1
Режим частоты кадров : Постоянный
Частота кадров : 23,976 (24000/1001) кадра/сек
Цветовое пространство : YUV
Субдискретизация насыщенности : 4:2:0
Битовая глубина : 8 бит
Тип развёртки : Прогрессивная
Бит/(Пиксели*Кадры) : 0.262
Размер потока : 6,07 Гбайт (89%)
Библиотека кодирования : x264 core 155 r2901 7d0ff22
Настройки программы : cabac=1 / ref=5 / deblock=1:0:0 / analyse=0x3:0x133 / me=umh / subme=7 / psy=1 / psy_rd=1.00:0.00 / mixed_ref=1 / me_range=16 / chroma_me=1 / trellis=2 / 8x8dct=1 / cqm=0 / deadzone=21,11 / fast_pskip=0 / chroma_qp_offset=-2 / threads=12 / lookahead_threads=2 / sliced_threads=0 / nr=0 / decimate=1 / interlaced=0 / bluray_compat=0 / constrained_intra=0 / bframes=3 / b_pyramid=2 / b_adapt=1 / b_bias=0 / direct=3 / weightb=1 / open_gop=0 / weightp=2 / keyint=250 / keyint_min=23 / scenecut=40 / intra_refresh=0 / rc_lookahead=50 / rc=2pass / mbtree=1 / bitrate=9645 / ratetol=1.0 / qcomp=0.60 / qpmin=0 / qpmax=69 / qpstep=4 / cplxblur=20.0 / qblur=0.5 / ip_ratio=1.40 / aq=1:1.00
Язык : English
Default : Да
Forced : Нет

Аудио #1
Идентификатор : 2
Формат : AC-3
Формат/Информация : Audio Coding 3
Коммерческое название : Dolby Digital
Идентификатор кодека : A_AC3
Продолжительность : 1 ч. 30 м.
Вид битрейта : Постоянный
Битрейт : 384 Кбит/сек
Каналы : 6 каналов
Channel layout : L R C LFE Ls Rs
Частота : 48,0 КГц
Частота кадров : 31,250 кадров/сек (1536 SPF)
Битовая глубина : 16 бит
Метод сжатия : С потерями
Размер потока : 248 Мбайт (4%)
Заголовок : iTunes
Язык : Russian
ServiceKind/String : Complete Main
Default : Да
Forced : Нет

Аудио #2
Идентификатор : 3
Формат : DTS
Формат/Информация : Digital Theater Systems
Идентификатор кодека : A_DTS
Продолжительность : 1 ч. 30 м.
Вид битрейта : Постоянный
Битрейт : 768 Кбит/сек
Каналы : 6 каналов
Channel layout : C L R Ls Rs LFE
Частота : 48,0 КГц
Частота кадров : 93,750 кадра/сек (512 SPF)
Битовая глубина : 24 бит
Метод сжатия : С потерями
Размер потока : 495 Мбайт (7%)
Заголовок : DTS
Язык : English
Default : Нет
Forced : Нет

Меню
00:00:00.000 : en:00:00:00.000
00:03:01.056 : en:00:03:01.056
00:09:53.676 : en:00:09:53.676
00:19:52.483 : en:00:19:52.483
00:26:04.062 : en:00:26:04.062
00:36:06.664 : en:00:36:06.664
00:47:10.619 : en:00:47:10.619
00:53:05.391 : en:00:53:05.391
01:02:04.262 : en:01:02:04.262
01:10:13.626 : en:01:10:13.626
01:19:34.770 : en:01:19:34.770
01:25:44.473 : en:01:25:44.473

pb.wtf



Скачать Женский бойцовский клуб через торрент http://d.radikal.ru/d25/1908/36/d8f598e0f774.jpg Скачать, смотреть онлайн Женский бойцовский клуб бесплантно в хорошем качестве Описание: Спустя пять лет Бэкс по прозвищу Зверюга, возвращается в родной городок, чтобы снова, как и пять лет назад, помочь своей сестре ... 10 10 5
Торрент: Зарегистрирован [2019-08-31 08:31] · скачан: 67 раз
Статус: T временная
Размер: 6.8 GB
Как cкачать? Как скачать Женский бойцовский клуб через торрент | UTorrent

% Раздел Тема Автор DL S | L
Фильмы 2017 [DVDrip, WEB-DLRip, HDrip] (DUB, MVO) [ 745 MB ] Женский бойцовский клуб / Female Fight Club [2017 HDRip] MVO [Прайд Продакшн] surikmas Скачать
1 | 0
Фильмы (WEB-DL 720p, 1080p) [ 3.74 GB ] Женский бойцовский клуб / Female Fight Club [2017 WEB-DL 1080p] MVO [Прайд Продакшн] bober100 Скачать
1 | 0

28-11-2019 20:33  

Отключить всю рекламу на сайте

01-09-2019 15:42 Женский бойцовский клуб Скачать торрент  

Первое правило бойцовского клуба, ни кого не трахать из бойцовского клуба)pb.wtf



    Дорогой пользователь! Огромная просьба, поблагодарите релизера, оцените раздачу и оставьте свои комментарий, если Вы скачали Женский бойцовский клуб через торрент бесплатно!
    Комментировать посты могут только пользователи прошедшие не сложную регистрацию
    Показать сообщения:    

    Женский бойцовский клуб через торрент
    Скачать бесплатно Женский бойцовский клуб
    Женский бойцовский клуб скачать торрент
    Женский бойцовский клуб смотреть онлайн
    Cкачать фильм Женский бойцовский клуб бесплатно
    Женский бойцовский клуб скачать торрент в хорошем качестве
    Женский бойцовский клуб смотреть онлайн бесплатно в хорошем качестве


    Вы не можете начинать темы
    Вы не можете отвечать на сообщения
    Вы не можете редактировать свои сообщения
    Вы не можете удалять свои сообщения
    Вы не можете голосовать в опросах
    Вы не можете прикреплять файлы к сообщениям
    Вы можете скачивать файлы