Ссылка на приватное зеркало всего за 1$. Внимание количество ограничено!!!

iTunes

1+1

iTunes

мы

WEB-DL

1

iTunes

Чернобыль

iTunes

Ральф против интернета

Лицензия

ПШазам

Лицензия

Оно 2

Лицензия

30
pack

Вам бонус

ВАЖНО

!!Акция!!

Alien_RageХит недели

RePack

Resident Evil 21

ИГРА 18+

pack

RePack

jed

!!Акция!!

Alien_Rage

RePack

fifa19

RePack

Assassins Creed: Odyssey

RePack

NEED FOR SPEED™ PAYBACK

3 сезон

9 сезон

Бесстыжие 9 сезон

Все сериалы

все сериалы на PB.wtf

RePack

FAR CRY 5
Ребята, катастрофически не хватает 1900р. для оплаты серверов за Октябрь (всвязи с блокировками трафик упал в 3 раза), 1-2р., выручайте.
  

Клуб анонимных киллеров / Killers Anonymous (Мартин Оуэн) [2019, Боевик, триллер, криминал, детектив, BDRip-AVC] DUB [iTunes] pb.wtf

Клуб анонимных киллеров через торрент pb.wtf

Раздают: 9 [ 43 KB/s ]
Размер: 1.81 GB | Добавлен: 3 мес. 13 д. назад | Торрент скачан:359 раз
Скачать  

31-08-2019 11:32 Клуб анонимных киллеров Скачать торрент  

Клуб анонимных киллеров / Killers Anonymous«Собрания начинаются»
Год выпуска: 2019
Страна: США, Великобритания
Жанр: Боевик, триллер, криминал, детектив
Продолжительность: 01:35:53
Перевод: Дублированный | iTunes
Субтитры: Английские (полные, SDH)

Режиссер: Мартин Оуэн

rating

В ролях: Гэри Олдман, Джессика Альба, Сэди Фрост, Сьюки Уотерхаус, Майкл Сока, Томми Флэнаган, МайАнна Бёринг, Тим МакИннерни, Сэм Хэзелдайн, Рион Николь Браун

Описание: Где-то в секретном месте городские убийцы собираются на встречи анонимных киллеров - там, в кругу единомышленников, они учатся подавлять свои жестокие порывы. В ночь, когда скончался сенатор США, клуб пополнился таинственным новобранцем, и начались размолвки - все начали подозревать друг друга. В конце концов герои понимают, что они связаны с более крупной и ужасающей организацией, чем могли себе представить.

Качество: BDRip-AVC
Формат: MKV

Видео: 1024x436 (2.35:1), 23,976 fps, x264 ~1 875 kbps avg, 0.175 bit/pixel
Аудио#1: 48 kHz, AC3 Dolby Digital Plus, 3/2 (L,C,R,l,r) + LFE ch, ~384.00 kbps avg | RUS (iTunes)
Аудио#2: 48 kHz, AC3 Dolby Digital Plus, 3/2 (L,C,R,l,r) + LFE ch, ~448.00 kbps avg | ENG
скриншот  скриншот  скриншот  скриншот  скриншот  

Общее
Уникальный идентификатор : 305241376764713151766857892254399617793 (0xE5A359CC917CEF0A385423DCBDA45B01)
Полное имя : F:\OlLanDGroup\Killers.Anonymous.2019.BDRip(AVC).OlLanDGroup.mkv
Формат : Matroska
Версия формата : Version 4 / Version 2
Размер файла : 1,81 Гбайт
Продолжительность : 1 ч. 35 м.
Общий поток : 2696 Кбит/сек
Название фильма : Killers.Anonymous.2019 #TorpedoUK#
Дата кодирования : UTC 2019-08-31 10:51:37
Программа кодирования : mkvmerge v29.0.0 ('Like It Or Not') 64-bit
Библиотека кодирования : libebml v1.3.6 + libmatroska v1.4.9
Обложка : Yes
Attachments : cover.png / cover_land.jpg / small_cover.jpg / small_cover_land.jpg / cover.jpg

Видео
Идентификатор : 1
Формат : AVC
Формат/Информация : Advanced Video Codec
Профиль формата : High@L4.1
Параметр CABAC формата : Да
Параметр ReFrames формата : 10 кадров
Идентификатор кодека : V_MPEG4/ISO/AVC
Продолжительность : 1 ч. 35 м.
Битрейт : 1875 Кбит/сек
Ширина : 1024 пикселя
Высота : 436 пикселей
Соотношение сторон : 2,35:1
Режим частоты кадров : Постоянный
Частота кадров : 23,976 (24000/1001) кадра/сек
Цветовое пространство : YUV
Субдискретизация насыщенности : 4:2:0
Битовая глубина : 8 бит
Тип развёртки : Прогрессивная
Бит/(Пиксели*Кадры) : 0.175
Размер потока : 1,25 Гбайт (69%)
Библиотека кодирования : x264 core 146 r2538 121396c
Настройки программы : cabac=1 / ref=10 / deblock=1:-3:-3 / analyse=0x3:0x113 / me=umh / subme=11 / psy=1 / psy_rd=0.99:0.04 / mixed_ref=1 / me_range=48 / chroma_me=1 / trellis=2 / 8x8dct=1 / cqm=0 / deadzone=21,11 / fast_pskip=1 / chroma_qp_offset=-3 / threads=6 / lookahead_threads=1 / sliced_threads=0 / nr=0 / decimate=1 / interlaced=0 / bluray_compat=0 / constrained_intra=0 / bframes=11 / b_pyramid=2 / b_adapt=2 / b_bias=0 / direct=3 / weightb=1 / open_gop=0 / weightp=2 / keyint=240 / keyint_min=23 / scenecut=40 / intra_refresh=0 / rc_lookahead=40 / rc=2pass / mbtree=0 / bitrate=1875 / ratetol=1.0 / qcomp=0.60 / qpmin=0 / qpmax=69 / qpstep=4 / cplxblur=20.0 / qblur=0.5 / vbv_maxrate=50000 / vbv_bufsize=62500 / nal_hrd=none / filler=0 / ip_ratio=1.40 / pb_ratio=1.30 / aq=1:1.00
Язык : English
Default : Да
Forced : Нет

Аудио #1
Идентификатор : 2
Формат : AC-3
Формат/Информация : Audio Coding 3
Расширение режима : CM (complete main)
Параметр Endianness формата : Big
Идентификатор кодека : A_AC3
Продолжительность : 1 ч. 35 м.
Вид битрейта : Постоянный
Битрейт : 384 Кбит/сек
Каналы : 6 каналов
Расположение каналов : Front: L C R, Side: L R, LFE
Частота : 48,0 КГц
Частота кадров : 31,250 кадров/сек (1536 spf)
Битовая глубина : 16 бит
Метод сжатия : С потерями
Размер потока : 263 Мбайт (14%)
Заголовок : DUB [iTunes]
Язык : Russian
Default : Да
Forced : Нет

Аудио #2
Идентификатор : 3
Формат : AC-3
Формат/Информация : Audio Coding 3
Расширение режима : CM (complete main)
Параметр Endianness формата : Big
Идентификатор кодека : A_AC3
Продолжительность : 1 ч. 35 м.
Вид битрейта : Постоянный
Битрейт : 448 Кбит/сек
Каналы : 6 каналов
Расположение каналов : Front: L C R, Side: L R, LFE
Частота : 48,0 КГц
Частота кадров : 31,250 кадров/сек (1536 spf)
Битовая глубина : 16 бит
Метод сжатия : С потерями
Размер потока : 307 Мбайт (17%)
Заголовок : [Original]
Язык : English
Default : Нет
Forced : Нет

Текст #1
Идентификатор : 4
Формат : UTF-8
Идентификатор кодека : S_TEXT/UTF8
Идентификатор кодека/Информация : UTF-8 Plain Text
Продолжительность : 1 ч. 28 м.
Битрейт : 68 бит/сек
Count of elements : 1353
Размер потока : 44,3 Кбайт (0%)
Заголовок : Full
Язык : English
Default : Нет
Forced : Нет

Текст #2
Идентификатор : 5
Формат : UTF-8
Идентификатор кодека : S_TEXT/UTF8
Идентификатор кодека/Информация : UTF-8 Plain Text
Продолжительность : 1 ч. 28 м.
Битрейт : 74 бит/сек
Count of elements : 1502
Размер потока : 48,5 Кбайт (0%)
Заголовок : SDH
Язык : English
Default : Нет
Forced : Нет

Меню
00:00:00.000 : en:Chapter 01
00:08:53.324 : en:Chapter 02
00:15:20.377 : en:Chapter 03
00:22:24.593 : en:Chapter 04
00:29:08.788 : en:Chapter 05
00:34:53.549 : en:Chapter 06
00:42:32.925 : en:Chapter 07
00:45:51.373 : en:Chapter 08
00:49:31.218 : en:Chapter 09
00:54:00.612 : en:Chapter 10
00:58:51.653 : en:Chapter 11
01:08:00.785 : en:Chapter 12
01:12:52.785 : en:Chapter 13
01:18:44.136 : en:Chapter 14
01:24:21.097 : en:Chapter 15
01:28:20.545 : en:Chapter 16

pb.wtf



Скачать Клуб анонимных киллеров через торрент https://img15.lostpic.net/2019/08/27/bba2d3fafc1c852bf0bdedb7066b1fc2.jpg Скачать фильм Клуб анонимных киллеров через торрент бесплантно в хорошем качестве Описание: Где-то в секретном месте городские убийцы собираются на встречи анонимных киллеров - там, в кругу единомышленников, они учатся ... 10 10 8
Info! Золотая раздача, скачанное не засчитывается.
Торрент: Зарегистрирован [2019-08-31 11:32] · скачан: 359 раз
Статус: √ проверено
Размер: 1.81 GB
Как cкачать? Как скачать Клуб анонимных киллеров через торрент | qTorrent

% Раздел Тема Автор DL S | L
Фильмы (HD 720p, 1080p) (48-60 fps) [ 11.28 GB ] Клуб анонимных киллеров / Killers Anonymous [2019 BDRip 1080p 60 fps] sheker187 Скачать
4 | 0
Фильмы 2019 [DVDrip, WEB-DLRip, HDrip] (DUB, MVO) [ 1.42 GB ] Клуб анонимных киллеров / Killers Anonymous [2019 BDRip] - Twi7ter Скачать
48 | 3
Фильмы [HD 720p, 1080p] (Хороший звук DUB, MVO) [ 4.04 GB ] Клуб анонимных киллеров / Killers Anonymous [2019 BDRip 720p] MVO - ExKinoRay Enigma2010 Скачать
20 | 0
Фильмы 2019 [DVDrip, WEB-DLRip, HDrip] (DUB, MVO) [ 1.42 GB ] Клуб анонимных киллеров / Killers Anonymous [2019 BDRip] bober100 Скачать
5 | 0
Фильмы [HD 720p, 1080p] (Хороший звук DUB, MVO) [ 3.32 GB ] Клуб анонимных киллеров / Killers Anonymous [2019 WEB-DL 720p] - ExKinoRay Enigma2010 Скачать
49 | 0
Фильмы (WEB-DL 720p, 1080p) [ 6.66 GB ] Клуб анонимных киллеров / Killers Anonymous [2019 WEB-DL 1080p] +MVO [СВ Студия] bober100 Скачать
6 | 0

28-11-2019 20:33  

Отключить всю рекламу на сайте

    Дорогой пользователь! Огромная просьба, поблагодарите релизера, оцените раздачу и оставьте свои комментарий, если Вы скачали Клуб анонимных киллеров через торрент бесплатно! Внесите свою лепту в развитие PiratBit!
    Комментировать посты могут только пользователи прошедшие не сложную регистрацию
    Показать сообщения:    

    Клуб анонимных киллеров через торрент
    Скачать бесплатно Клуб анонимных киллеров
    Клуб анонимных киллеров скачать торрент
    Клуб анонимных киллеров смотреть онлайн
    Cкачать фильм Клуб анонимных киллеров бесплатно
    Клуб анонимных киллеров скачать торрент в хорошем качестве
    Клуб анонимных киллеров смотреть онлайн бесплатно в хорошем качестве


    Вы не можете начинать темы
    Вы не можете отвечать на сообщения
    Вы не можете редактировать свои сообщения
    Вы не можете удалять свои сообщения
    Вы не можете голосовать в опросах
    Вы не можете прикреплять файлы к сообщениям
    Вы можете скачивать файлы