новый адрес
Ссылка на приватное зеркало всего за 1$. Внимание количество ограничено!!!

iTunes

1+1

iTunes

мы

WEB-DL

1

iTunes

Чернобыль

iTunes

Ральф против интернета

Лицензия

ПШазам

Лицензия

Оно 2

Лицензия

30
pack

Вам бонус

ВАЖНО

!!Акция!!

Alien_RageХит недели

RePack

Resident Evil 21

ИГРА 18+

pack

RePack

jed

!!Акция!!

Alien_Rage

RePack

fifa19

RePack

Assassins Creed: Odyssey

RePack

NEED FOR SPEED™ PAYBACK

3 сезон

9 сезон

Бесстыжие 9 сезон

Все сериалы

все сериалы на PB.wtf

RePack

FAR CRY 5
Ребята, катастрофически не хватает 1900р. для оплаты серверов за Октябрь (всвязи с блокировками трафик упал в 3 раза), 1-2р., выручайте.
  

Белоснежка. Сказка для взрослых / Blanche comme neige (Анн Фонтен) [2019, драма, комедия, WEB-DLRip-AVC] [Dub] pb.wtf

Белоснежка. Сказка для взрослых через торрент pb.wtf

Раздают: 89 [ 102 KB/s ] Качают: 3 [ 0 KB/s ]
Размер: 1.45 GB | Добавлен: 3 мес. 11 д. назад | Торрент скачан:788 раз
Скачать  

31-08-2019 13:25 Белоснежка. Сказка для взрослых Скачать торрент  

Белоснежка. Сказка для взрослых
Blanche comme neige

Страна: Франция, Бельгия
Жанр: драма, комедия
Год выпуска: 2019
Продолжительность: 01:52:17

Перевод: Профессиональный (полное дублирование) [Soul-Pro | iTunes]
Субтитры: нет
Оригинальная аудиодорожка: нет

Режиссер: Анн Фонтен / Anne Fontaine

В ролях: Лу де Лааж, Изабель Юппер, Шарль Берлинг, Дамиен Боннар, Джонатан Коэн, Ричард Фрешетт, Венсан Макен, Пабло Поли, Бенуа Пульворд, Аврора Брутен

Описание: После смерти отца юная и прекрасная сирота Клэр продолжает работать в принадлежавшем ему отеле под руководством авторитарной мачехи Мод. Когда молодой любовник Мод заглядывается на Клэр, ревнивая вдова решает жестоко избавиться от соперницы. Клэр бежит на отдаленную ферму, где встречает семерых мужчин и начинает познания себя и своей сексуальности.



Релиз:

Автор рипа: stalkerok

Сэмпл

Качество видео: WEB-DLRip-AVC | Исходник: BELOSNEZHKA_SDV_2019_WEB-DL_1080p-BLUEBIRD
Формат видео: MKV
Видео кодек: AVC
Аудио кодек: AC3
Видео: AVC, 1462 Кбит/сек, 1152x648 (16:9), 24 кадр/сек
Аудио: AC3, 384 Кбит/сек, 48 КГц, 5.1 - русский
Навигация по главам: есть
---[Information] [31.08.2019 16:07:24] x264 [info]: frame I:910 Avg QP:15.34 size: 49764
---[Information] [31.08.2019 16:07:24] x264 [info]: frame P:40686 Avg QP:17.42 size: 15518
---[Information] [31.08.2019 16:07:24] x264 [info]: frame B:120092 Avg QP:19.15 size: 4619

General
Unique ID : 106388327985484042518773041566027353699 (0x5009A58B83651B68B07530CD6A440E63)
Complete name : C:\temp\Blanche comme neige\Blanche.comme.neige.2019.WEB-DLRip.x264.Rus.stalkerok.New-Team.mkv
Format : Matroska
Format version : Version 4
File size : 1.45 GiB
Duration : 1 h 52 min
Overall bit rate : 1 848 kb/s
Movie name : Blanche comme neige (White as Snow) (2019) | Rip by stalkerok
Encoded date : UTC 2019-08-31 13:09:00
Writing application : mkvmerge v33.1.0 ('Primrose') 64-bit
Writing library : libebml v1.3.7 + libmatroska v1.5.0
Cover : Yes
Attachments : cover.png

Video
ID : 1
Format : AVC
Format/Info : Advanced Video Codec
Format profile : High@L4.1
Format settings : CABAC / 11 Ref Frames
Format settings, CABAC : Yes
Format settings, Reference frames : 11 frames
Codec ID : V_MPEG4/ISO/AVC
Duration : 1 h 52 min
Bit rate : 1 462 kb/s
Width : 1 152 pixels
Height : 648 pixels
Display aspect ratio : 16:9
Frame rate mode : Constant
Frame rate : 24.000 FPS
Color space : YUV
Chroma subsampling : 4:2:0
Bit depth : 8 bits
Scan type : Progressive
Bits/(Pixel*Frame) : 0.082
Stream size : 1.15 GiB (79%)
Title : Blanche comme neige (White as Snow) (2019) | Rip by stalkerok
Writing library : x264 core 158 r2984+49 6932f4a t_mod_New [0-bit@all X86_64]
Encoding settings : cabac=1 / ref=11 / deblock=1:-3:-2 / analyse=0x3:0x133 / me=umh / subme=11 / psy=1 / fade_compensate=0.00 / psy_rd=1.00:0.00 / mixed_ref=1 / me_range=32 / chroma_me=1 / trellis=2 / 8x8dct=1 / cqm=0 / deadzone=21,11 / fast_pskip=0 / chroma_qp_offset=-2 / threads=12 / lookahead_threads=3 / sliced_threads=0 / nr=0 / decimate=1 / interlaced=0 / bluray_compat=0 / constrained_intra=0 / fgo=0 / bframes=14 / b_pyramid=2 / b_adapt=2 / b_bias=0 / direct=3 / weightb=1 / open_gop=0 / weightp=2 / keyint=240 / keyint_min=23 / scenecut=40 / intra_refresh=0 / rc_lookahead=60 / rc=crf / mbtree=0 / crf=19.8000 / qcomp=0.65 / qpmin=0:0:0 / qpmax=69:69:69 / qpstep=4 / vbv_maxrate=50000 / vbv_bufsize=62500 / crf_max=0.0 / nal_hrd=none / filler=0 / ip_ratio=1.40 / pb_ratio=1.30 / aq=3:0.80 / aq-sensitivity=10.00 / aq-factor=1.00:1.00:1.00 / aq2=0 / aq3=0 / zones=156281,161687,q=32
Default : Yes
Forced : No

Audio
ID : 2
Format : AC-3
Format/Info : Audio Coding 3
Commercial name : Dolby Digital
Codec ID : A_AC3
Duration : 1 h 52 min
Bit rate mode : Constant
Bit rate : 384 kb/s
Channel(s) : 6 channels
Channel layout : L R C LFE Ls Rs
Sampling rate : 48.0 kHz
Frame rate : 31.250 FPS (1536 SPF)
Bit depth : 16 bits
Compression mode : Lossy
Stream size : 308 MiB (21%)
Title : Dub
Language : Russian
Service kind : Complete Main
Default : Yes
Forced : No

Menu
00:00:00.000 : en:Глава 1
00:09:05.125 : en:Глава 2
00:17:36.166 : en:Глава 3
00:26:40.249 : en:Глава 4
00:35:07.082 : en:Глава 5
00:43:18.665 : en:Глава 6
00:53:02.748 : en:Глава 7
01:02:26.414 : en:Глава 8
01:12:42.080 : en:Глава 9
01:22:46.163 : en:Глава 10
01:32:52.454 : en:Глава 11
01:41:46.912 : en:Глава 12
pb.wtf



Скачать Белоснежка. Сказка для взрослых через торрент http://i6.imageban.ru/out/2017/09/18/2ff75c0c358795c5946784cc1680714d.png Скачать фильм Белоснежка. Сказка для взрослых через торрент бесплантно в хорошем качестве Описание: После смерти отца юная и прекрасная сирота Клэр продолжает работать в принадлежавшем ему отеле под руководством авторитарной ... 9.4 10 17
Info! Золотая раздача, скачанное не засчитывается.
Торрент: Зарегистрирован [2019-08-31 13:25] · скачан: 788 раз
Статус: √ проверено
Размер: 1.45 GB
Как cкачать? Как скачать Белоснежка. Сказка для взрослых через торрент | qTorrent

% Раздел Тема Автор DL S | L
Фильмы (WEB-DL 720p, 1080p) [ 3.5 GB ] Белоснежка. Сказка для взрослых / Blanche comme neige [2019 WEB-DL 720p] bober100 Скачать
2 | 0
Фильмы 2019 [DVDrip, WEB-DLRip, HDrip] (DUB, MVO) [ 1.46 GB ] Белоснежка. Сказка для взрослых / Blanche comme neige [2019 WEB-DLRip] bober100 Скачать
6 | 0
Фильмы 2019 [DVDrip, WEB-DLRip, HDrip] (DUB, MVO) [ 711 MB ] Белоснежка. Сказка для взрослых / Blanche comme neige [2019 WEB-DLRip ""] coc900 Скачать
5 | 0
Фильмы (WEB-DL 720p, 1080p) [ 4.21 GB ] Белоснежка. Сказка для взрослых / Blanche comme neige [2019 WEB-DL 1080p] bober100 Скачать
5 | 0

28-11-2019 20:33  

Отключить всю рекламу на сайте

31-08-2019 15:07 Белоснежка. Сказка для взрослых Скачать торрент  

Описание жжёт pb.wtf



31-08-2019 21:46 Белоснежка. Сказка для взрослых Скачать торрент  

pb.wtf



01-09-2019 06:02 Белоснежка. Сказка для взрослых Скачать торрент  

глянем)))pb.wtf



01-09-2019 19:35 Белоснежка. Сказка для взрослых Скачать торрент  

"..где встречает семерых мужчин и начинает познания себя и своей сексуальности."

pb.wtf



02-09-2019 22:12 Белоснежка. Сказка для взрослых Скачать торрент  

причём вся группа познающих делают это одновременно а не в порядке очереди pb.wtf



16-10-2019 18:41 Белоснежка. Сказка для взрослых Скачать торрент  

я видел порно с таким же описанием...pb.wtf



    Дорогой пользователь! Огромная просьба, поблагодарите релизера, оцените раздачу и оставьте свои комментарий, если Вы скачали Белоснежка. Сказка для взрослых через торрент бесплатно! Внесите свою лепту в развитие PiratBit!
    Комментировать посты могут только пользователи прошедшие не сложную регистрацию
    Показать сообщения:    

    Белоснежка. Сказка для взрослых через торрент
    Скачать бесплатно Белоснежка. Сказка для взрослых
    Белоснежка. Сказка для взрослых скачать торрент
    Белоснежка. Сказка для взрослых смотреть онлайн
    Cкачать фильм Белоснежка. Сказка для взрослых бесплатно
    Белоснежка. Сказка для взрослых скачать торрент в хорошем качестве
    Белоснежка. Сказка для взрослых смотреть онлайн бесплатно в хорошем качестве


    Вы не можете начинать темы
    Вы не можете отвечать на сообщения
    Вы не можете редактировать свои сообщения
    Вы не можете удалять свои сообщения
    Вы не можете голосовать в опросах
    Вы не можете прикреплять файлы к сообщениям
    Вы можете скачивать файлы