Лицензия

MVO

1

1 сезон

Лицензия

Лицензия

13

MVO

1 сезон

Deluxe Edition

pack

Рекомендуем

30

Repack

ВАЖНО

ВАЖНО

Ghostwire

RePack

jed

RePack

fifa19

RePack

RDR2

RePack

NEED FOR SPEED™ PAYBACK

RePack

Кинопоиск HD

 Острые козырьки 6 сезон

6 сезон

FAR CRY 6

RePack

Лицензия

MVO

1

1 сезон

1 сезон

Лицензия

  

Святая ложь / Серии: 1-4 из 4 (Андрей Селиванов) [2019, Мелодрама, SATRip]

Святая ложь через торрент pb.wtf

Размер: 2.49 GB | Добавлен: 3 года назад | Торрент скачан:73 раза
Смотреть онлайн Святая ложь | Скачать   

31-08-2019 14:31 Святая ложь Скачать торрент  

Святая ложь
Год выпуска: 2019
Страна: Россия
Жанр: Мелодрама
Продолжительность: ~ 00:45:00 серия
Субтитры: отсутствуют

Режиссер: Андрей Селиванов



В ролях: Елена Шилова, Дмитрий Миллер, Илья Акинтьев, Марина Коняшкина, Людмила Чиркова, Анастасия Шаповал

Описание: На какие жертвы можно пойти ради любимого человека? И возможно ли пережить предательство того, кто еще вчера был так близок?.. Светлана и Дмитрий влюблены и собираются пожениться. Но счастливым мечтам, увы, не суждено сбыться. Незадолго до свадьбы на влюбленных нападают уличные хулиганы, и эта встреча оборачивается настоящей трагедией. В драке Дмитрий убивает одного из бандитов. Светлана решает во что бы то ни стало спасти любимого – она берет вину на себя, и сама попадает за решетку. Впереди женщину ждут тяготы и страшное предательство, а, главное, неожиданное появление таинственного дара – видеть будущее. С этого момента жизнь Светланы резко изменится, но вот в какую сторону – большой вопрос…

Качество: SATRip
Формат: AVI

Видео: XviD, ~ 1800 Кбит/с, 720x400
Аудио: MP3, 2 ch, 128 Кбит/с
скриншот  скриншот  скриншот  скриншот  

Общее
Полное имя : D:\Святая.Ложь.XviD.2019.SATRip\01.Святая.Ложь.avi
Формат : AVI
Формат/Информация : Audio Video Interleave
Размер файла : 610 Мбайт
Продолжительность : 43 м. 58 с.
Общий поток : 1939 Кбит/сек
Программа кодирования : VirtualDubMod 1.5.10.3 | www.virtualdub-fr.org || (build 2550/release)
Библиотека кодирования : VirtualDubMod build 2550/release

Видео
Идентификатор : 0
Формат : MPEG-4 Visual
Профиль формата : Advanced [email protected]
Параметр BVOP формата : 2
Параметр QPel формата : Нет
Параметр GMC формата : Без точки перехода
Параметр матрицы формата : Default (H.263)
Идентификатор кодека : XVID
Идентификатор кодека/Подсказка : XviD
Продолжительность : 43 м. 58 с.
Битрейт : 1801 Кбит/сек
Ширина : 720 пикселей
Высота : 400 пикселей
Соотношение сторон : 16:9
Частота кадров : 25,000 кадров/сек
Цветовое пространство : YUV
Субдискретизация насыщенности : 4:2:0
Битовая глубина : 8 бит
Тип развёртки : Прогрессивная
Метод сжатия : С потерями
Бит/(Пиксели*Кадры) : 0.250
Размер потока : 566 Мбайт (93%)
Библиотека кодирования : XviD 1.2.1 (UTC 2008-12-04)

Аудио
Идентификатор : 1
Формат : MPEG Audio
Версия формата : Version 1
Профиль формата : Layer 3
Режим : Joint stereo
Расширение режима : MS Stereo
Идентификатор кодека : 55
Идентификатор кодека/Подсказка : MP3
Продолжительность : 43 м. 58 с.
Вид битрейта : Постоянный
Битрейт : 128 Кбит/сек
Каналы : 2 канала
Частота : 48,0 КГц
Метод сжатия : С потерями
Размер потока : 40,3 Мбайт (7%)
Выравнивание : Соединение по промежуткам
Продолжительность промежутка : 40 мс. (1,00 видеокадр)
Время предзагрузки промежутка : 504 мс.
Библиотека кодирования : LAME3.99r
Настройки программы : -m j -V 4 -q 9 -lowpass 17 -b 128




Скачать Святая ложь через торрент https://funkyimg.com/i/2WBnn.jpg Скачать, смотреть онлайн Святая ложь бесплантно в хорошем качестве Описание: На какие жертвы можно пойти ради любимого человека? И возможно ли пережить предательство того, кто еще вчера был так близок?.. ... 10 10 6
Торрент: Зарегистрирован [2019-08-31 14:31] · скачан: 73 раз
Статус: √ проверено
Размер: 2.49 GB
Как cкачать? Как скачать Святая ложь через торрент | UTorrent

% Раздел Тема Автор DL S | L
Наши сериалы [ 5.27 GB ] Святая ложь / Серии: 1-2 из 2 | | HDTVRip 720p bober100 Скачать
1 | 0
Наши сериалы [ 2.27 GB ] Святая ложь / Серии: 1-2 из 2 | | DLRip-AVC bober100 Скачать
1 | 0

28-11-2019 20:33  

Отключить вcю реклaмy на сайте

    Дорогой пользователь! Огромная просьба, поблагодарите релизера, оцените раздачу и оставьте свои комментарий, если Вы скачали Святая ложь через торрент бесплатно!!
    Комментировать посты могут только пользователи прошедшие не сложную регистрацию
    Показать сообщения:    


    Святая ложь через торрент
    Скачать бесплатно Святая ложь
    Святая ложь скачать торрент
    Святая ложь смотреть онлайн
    Cкачать фильм Святая ложь бесплатно
    Святая ложь скачать торрент в хорошем качестве
    Святая ложь смотреть онлайн бесплатно в хорошем качестве
    Вы не можете начинать темы
    Вы не можете отвечать на сообщения
    Вы не можете редактировать свои сообщения
    Вы не можете удалять свои сообщения
    Вы не можете голосовать в опросах
    Вы не можете прикреплять файлы к сообщениям
    Вы можете скачивать файлы