>

5.6

iTunes

6.1

MVO

5.7

MVO

1

7.4

1 сезон

6.8

iTunes

7.2

1 сезон

13

6.7

1 сезон

8.3

RePack

30

Deluxe

pack

9.9

Лицензия

ВАЖНО

ИГРА 18+

pack

7.3

RePack

MK11

7.7

RePack

jed

7.8

RePack

fifa19

8.5

RePack

RDR2

RePack

NEED FOR SPEED™ PAYBACK

4 сезон

9 сезон

Бесстыжие 9 сезон

Все сериалы

все сериалы на PB.wtf

RePack

FAR CRY 5

Anonymous, добрый вечер, мы катастрофически не успеваем собрать деньги на оплату серверов, помогите нам пожалуйста 5,10,15р., для нас важна любая помощь . В качестве благодарности мы отключим Вам всю рекламу на сайте (укажите свой ник в строку Ваше имя)!

×
  
Magnet ссылка

На Дерибасовской хорошая погода, или На Брайтон Бич опять идут дожди (Леонид Гайдай) [1992, комедия, боевик, HDTVRip 720p от KORSAR] pb.wtf

На Дерибасовской хорошая погода, или На Брайтон Бич опять идут дожди через торрент pb.wtf

Размер: 4.4 GB | Добавлен: 2 года назад | Торрент скачан:55 раз
Смотреть онлайн На Дерибасовской хорошая погода, или На Брайтон Бич опять идут дожди | Скачать    Ребята, помогите собрать деньги на оплату серверов!!!

31-08-2019 15:42 На Дерибасовской хорошая погода, или На Брайтон Бич опять идут дожди Скачать торрент  

На Дерибасовской хорошая погода, или На Брайтон Бич опять идут дожди

Жанр: комедия, боевик
Год выпуска: 1992
Продолжительность: 01:30:09
Режиссёр: Леонид Гайдай
В ролях: Дмитрий Харатьян, Армен Джигарханян, Андрей Мягков, Келли Мак Грил, Елена Бушуева, Александр Лойе, Руслан Ахметов, Аркадий Инин, Мамука Кикалейшвили, Леонид Куравлев, Вячеслав Разбегаев, Муза Крепкогорская, Юрий Волынцев, Евгений Весник, Михаил Кокшенов.

Описание: Историко-революционный фильм для детей младшего, старшего, зрелого и пожилого возраста о тех далеких, незабываемых временах, когда еще были СССР, КПСС и КОЛБАСА по 2 руб. 20 коп. Намечено проведение важных переговоров между президентами двух великих держав - СССР и США. Однако, русская мафия, пустившая корни в Америке, ставит проведение столь важного саммита под угрозу. Тогда, временно объединившись в борьбе с преступными элементами, спецслужбы обоих государств - КГБ и ЦРУ - отправляют своих лучших агентов Федора Соколова и Мэри Стар на Брайтон-Бич. Именно там скрывается главный мафиози...

Релиз от:

Качество: HDTVRip 720p
Формат: MKV

Видео: MPEG-4 AVC, 984x720, 25 fps, 6671 Кбит/с
Звук: AC3, 2 ch, 384 Кбит/с
  • x264 [info]: frame I:852 Avg QP:18.58 size:134553
  • x264 [info]: frame P:29499 Avg QP:20.02 size: 71183
  • x264 [info]: frame B:100939 Avg QP:22.17 size: 22366
  • x264 [info]: consecutive B-frames: 1.3% 2.4% 5.8% 37.2% 20.4% 28.3% 2.8% 0.9% 0.4% 0.2% 0.1% 0.2%
Общее
Уникальный идентификатор : 203527147954037322328792569373018355560 (0x991DE722C0CF491A869E18CF54FCF768)
Полное имя : D:\На Дерибасовской хорошая погода, или На Брайтон Бич опять идут дожди_1982-HDTVRip 720p_KORSAR.mkv
Формат : Matroska
Версия формата : Version 2
Размер файла : 4,40 Гбайт
Продолжительность : 1 ч. 27 м.
Общий поток : 7198 Кбит/сек
Дата кодирования : UTC 2018-02-04 11:22:58
Программа кодирования : mkvmerge v5.8.0 ('No Sleep / Pillow') built on Sep 2 2012 15:37:04
Библиотека кодирования : libebml v1.2.3 + libmatroska v1.3.0

Видео
Идентификатор : 1
Формат : AVC
Формат/Информация : Advanced Video Codec
Профиль формата : High@L4.1
Параметр CABAC формата : Да
Параметр RefFrames формата : 11 кадров
Идентификатор кодека : V_MPEG4/ISO/AVC
Продолжительность : 1 ч. 27 м.
Битрейт : 6671 Кбит/сек
Ширина : 984 пикселя
Высота : 720 пикселей
Соотношение сторон : 4:3
Режим частоты кадров : Постоянный
Частота кадров : 25,000 кадров/сек
Цветовое пространство : YUV
Субдискретизация насыщенности : 4:2:0
Битовая глубина : 8 бит
Тип развёртки : Прогрессивная
Бит/(Пиксели*Кадры) : 0.377
Размер потока : 4,08 Гбайт (93%)
Библиотека кодирования : x264 core 148 r2744kMod b97ae06
Настройки программы : cabac=1 / ref=11 / deblock=1:-2:-2 / analyse=0x3:0x113 / me=umh / subme=10 / psy=1 / fade_compensate=0.00 / psy_rd=1.05:0.10 / mixed_ref=1 / me_range=40 / chroma_me=1 / trellis=2 / 8x8dct=1 / cqm=0 / deadzone=21,11 / fast_pskip=1 / chroma_qp_offset=-3 / threads=12 / lookahead_threads=3 / sliced_threads=0 / nr=0 / decimate=1 / interlaced=0 / bluray_compat=0 / constrained_intra=0 / bframes=11 / b_pyramid=2 / b_adapt=2 / b_bias=0 / direct=1 / weightb=1 / open_gop=0 / weightp=2 / keyint=250 / keyint_min=25 / scenecut=40 / intra_refresh=0 / rc_lookahead=40 / rc=crf / mbtree=0 / crf=17.6000 / qcomp=0.63 / qpmin=0 / qpmax=39 / qpstep=4 / vbv_maxrate=50000 / vbv_bufsize=62500 / crf_max=0.0 / nal_hrd=none / filler=0 / ip_ratio=1.40 / pb_ratio=1.30 / aq=1:0.90
Язык : English
Default : Да
Forced : Нет
Цветовой диапазон : Limited
Основные цвета : BT.709
Характеристики трансфера : BT.709
Коэффициенты матрицы : BT.709

Аудио
Идентификатор : 2
Формат : AC-3
Формат/Информация : Audio Coding 3
Параметр Endianness формата : Big
Идентификатор кодека : A_AC3
Продолжительность : 1 ч. 27 м.
Вид битрейта : Постоянный
Битрейт : 384 Кбит/сек
Каналы : 2 канала
Расположение каналов : Front: L R
Частота : 48,0 КГц
Частота кадров : 31,250 кадров/сек (1536 SPF)
Битовая глубина : 16 бит
Метод сжатия : С потерями
Задержка видео : 8 мс.
Размер потока : 240 Мбайт (5%)
Язык : Russian
ServiceKind/String : Complete Main
Default : Да
Forced : Нет
pb.wtf



Скачать На Дерибасовской хорошая погода, или На Брайтон Бич опять идут дожди через торрент http://i82.fastpic.ru/big/2016/1102/60/2c77837da5d63fb101910af5e374fc60.jpg Скачать, смотреть онлайн На Дерибасовской хорошая погода, или На Брайтон Бич опять идут дожди бесплантно в хорошем качестве Описание: Историко-революционный фильм для детей младшего, старшего, зрелого и пожилого возраста о тех далеких, незабываемых временах, ... 7 10 3
Info! Золотая раздача, скачанное не засчитывается.
Торрент: Зарегистрирован [2019-08-31 15:42] · скачан: 55 раз
Статус: √ проверено
Размер: 4.4 GB
Как cкачать? Как скачать На Дерибасовской хорошая погода, или На Брайтон Бич опять идут дожди через торрент | UTorrent

% Раздел Тема Автор DL S | L
Наши фильмы, до 2010 [ 1.37 GB ] На Дерибасовской хорошая погода или На Брайтон-Бич опять идут дожди [1992 DVDRip] -=Cherry=- Скачать
1 | 1

28-11-2019 20:33  

Отключить всю рекламу на сайте

    Дорогой пользователь! Огромная просьба, поблагодарите релизера, оцените раздачу и оставьте свои комментарий, если Вы скачали На Дерибасовской хорошая погода, или На Брайтон Бич опять идут дожди через торрент бесплатно!
    Комментировать посты могут только пользователи прошедшие не сложную регистрацию
    Показать сообщения:    

    На Дерибасовской хорошая погода, или На Брайтон Бич опять идут дожди через торрент
    Скачать бесплатно На Дерибасовской хорошая погода, или На Брайтон Бич опять идут дожди
    На Дерибасовской хорошая погода, или На Брайтон Бич опять идут дожди скачать торрент
    На Дерибасовской хорошая погода, или На Брайтон Бич опять идут дожди смотреть онлайн
    Cкачать фильм На Дерибасовской хорошая погода, или На Брайтон Бич опять идут дожди бесплатно
    На Дерибасовской хорошая погода, или На Брайтон Бич опять идут дожди скачать торрент в хорошем качестве
    На Дерибасовской хорошая погода, или На Брайтон Бич опять идут дожди смотреть онлайн бесплатно в хорошем качестве


    Вы не можете начинать темы
    Вы не можете отвечать на сообщения
    Вы не можете редактировать свои сообщения
    Вы не можете удалять свои сообщения
    Вы не можете голосовать в опросах
    Вы не можете прикреплять файлы к сообщениям
    Вы можете скачивать файлы