MEGA SALE -50% FORZA HORIZON 4 ULTIMATE+ВСЕ DLC+ОНЛАЙН всего за 599р. 299 руб. (супер цена). Внимание количество ограничено!!!

iTunes

1+1

iTunes

мы

iTunes

1

iTunes

Чернобыль

iTunes

Ральф против интернета

Лицензия

ПШазам

Лицензия

Игра престолов

Лицензия

30
pack

ВАЖНО

!!Акция!!

Alien_RageХит недели

RePack

Resident Evil 21

ИГРА 18+

pack

RePack

Metro:Exodus

!!Акция!!

Alien_Rage

RePack

fifa19

RePack

Assassins Creed: Odyssey

RePack

NEED FOR SPEED™ PAYBACK

3 сезон

9 сезон

Бесстыжие 9 сезон

Все сериалы

все сериалы на PB.wtf

RePack

FAR CRY 5
Ребята, катастрофически не хватает 7730р. для оплаты серверов за АВГУСТ (всвязи с блокировками трафик упал в 3 раза), 1-2р., выручайте.
  

Хладнокровный убийца / The Stone Killer (Майкл Уиннер) [1973 г., Триллер, боевик, драма, криминал, BDRip 720p, Профессиональный (двухголосый), авторский] от ExKinoRay pb.wtf

Хладнокровный убийца через торрент pb.wtf

Размер: 4.86 GB | Добавлен: 16 д. назад | Торрент скачан:6 раз
Скачать  

31-08-2019 17:35 Хладнокровный убийца Скачать торрент  

Хладнокровный убийца / The Stone Killer
Год выпуска: 1973
Страна: Италия, США
Жанр: Триллер, боевик, драма, криминал
Продолжительность: 01:35:09
Перевод: Профессиональный (двухголосый), авторский
Субтитры: Английские

Режиссер: Майкл Уиннер

Премьера в мире: 8 августа 1973

rating

В ролях: Чарльз Бронсон, Мартин Болсам, Джек Колвин, Пол Косло, Норман Фелл, Дэвид Шейнер, Стюарт Марголин, Ральф Вейт, Альфред Райкер, Уолтер Бурк

Описание: Серия событий, кажущихся не связанными между собой, приводит к раскрытию крупнейшего преступления. Сумасшедший главарь мафии одержим местью за убийство своих коллег, совершенное 40 лет назад. Бронсон противостоит ему в желании осуществить вендетту.

Доп. информация: Перевод: Профессиональный двухголосый (студия "Кипарис"), авторский (В. Махонько, В. Горчаков, Ю. Сербин)

Качество: BDRip 720p
Формат: MKV
Видео кодек: H.264
Аудио кодек: AC3
Видео: MPEG-4 AVC, 5000 Кбит/с, 1280x692, 23.976 кадра/сек
Аудио#1: Русский (AC3, 2 ch, 192 Кбит/с, 48 КГц) - студия Кипарис
Аудио#2: Русский (AC3, 2 ch, 224 Кбит/с, 48 КГц) - Махонько
Аудио#3: Русский (AC3, 2 ch, 192 Кбит/с, 48 КГц) - Горчаков
Аудио#4: Русский (AC3, 2 ch, 192 Кбит/с, 48 КГц) - Сербин
Аудио#5: Английский (DTS, 2 ch, 1509 Кбит/с, 48 КГц)
Релиз от:
x264 [info]: profile High, level 4.1
x264 [info]: frame I:964 Avg QP:17.97 size:107593
x264 [info]: frame P:28414 Avg QP:20.85 size: 44150
x264 [info]: frame B:107517 Avg QP:22.00 size: 20554
-----
Общее
Уникальный идентификатор : 173750294826348234124159032302818187413 (0x82B716EDBEFFE338B41F1C98EBFA5895)
Полное имя : F:\ExKinoRayRips\Stone.Killer.1973.BDRip720p.ExKinoRay.mkv
Формат : Matroska
Версия формата : Version 2
Размер файла : 4,86 Гбайт
Продолжительность : 1 ч. 35 м.
Общий поток : 7293 Кбит/сек
Дата кодирования : UTC 2019-08-31 14:31:06
Программа кодирования : mkvmerge v7.8.0 ('River Man') 32bit built on Apr 3 2015 12:11:22
Библиотека кодирования : libebml v1.3.1 + libmatroska v1.4.2

Видео
Идентификатор : 1
Формат : AVC
Формат/Информация : Advanced Video Codec
Профиль формата : High@L4.1
Настройки формата : CABAC / 9 Ref Frames
Параметр CABAC формата : Да
Параметр RefFrames формата : 9 кадров
Идентификатор кодека : V_MPEG4/ISO/AVC
Продолжительность : 1 ч. 35 м.
Битрейт : 5000 Кбит/сек
Ширина : 1280 пикселей
Высота : 692 пикселя
Соотношение сторон : 1,85:1
Режим частоты кадров : Постоянный
Частота кадров : 23,976 (24000/1001) кадра/сек
Цветовое пространство : YUV
Субдискретизация насыщенности : 4:2:0
Битовая глубина : 8 бит
Тип развёртки : Прогрессивная
Бит/(Пиксели*Кадры) : 0.235
Размер потока : 3,22 Гбайт (66%)
Библиотека кодирования : x264 core 152 r2851 ba24899
Настройки программы : cabac=1 / ref=9 / deblock=1:-3:-2 / analyse=0x3:0x113 / me=umh / subme=10 / psy=1 / psy_rd=1.00:0.10 / mixed_ref=1 / me_range=32 / chroma_me=1 / trellis=2 / 8x8dct=1 / cqm=0 / deadzone=21,11 / fast_pskip=0 / chroma_qp_offset=-3 / threads=6 / lookahead_threads=1 / sliced_threads=0 / nr=0 / decimate=0 / interlaced=0 / bluray_compat=0 / constrained_intra=0 / bframes=12 / b_pyramid=2 / b_adapt=2 / b_bias=0 / direct=3 / weightb=1 / open_gop=0 / weightp=2 / keyint=240 / keyint_min=23 / scenecut=40 / intra_refresh=0 / rc=2pass / mbtree=0 / bitrate=5000 / ratetol=1.0 / qcomp=0.60 / qpmin=0 / qpmax=69 / qpstep=4 / cplxblur=20.0 / qblur=0.5 / ip_ratio=1.40 / pb_ratio=1.30 / aq=3:1.00
Язык : English
Default : Да
Forced : Нет
Цветовой диапазон : Limited
Основные цвета : BT.709
Характеристики трансфера : BT.709
Коэффициенты матрицы : BT.709

Аудио #1
Идентификатор : 2
Формат : AC-3
Формат/Информация : Audio Coding 3
Коммерческое название : Dolby Digital
Идентификатор кодека : A_AC3
Продолжительность : 1 ч. 35 м.
Вид битрейта : Постоянный
Битрейт : 192 Кбит/сек
Каналы : 2 канала
Channel layout : L R
Частота : 48,0 КГц
Частота кадров : 31,250 кадров/сек (1536 SPF)
Битовая глубина : 16 бит
Метод сжатия : С потерями
Размер потока : 131 Мбайт (3%)
Заголовок : студия "Кипарис"
Язык : Russian
ServiceKind/String : Complete Main
Default : Да
Forced : Нет

Аудио #2
Идентификатор : 3
Формат : AC-3
Формат/Информация : Audio Coding 3
Коммерческое название : Dolby Digital
Идентификатор кодека : A_AC3
Продолжительность : 1 ч. 35 м.
Вид битрейта : Постоянный
Битрейт : 224 Кбит/сек
Каналы : 2 канала
Channel layout : L R
Частота : 48,0 КГц
Частота кадров : 31,250 кадров/сек (1536 SPF)
Битовая глубина : 16 бит
Метод сжатия : С потерями
Размер потока : 153 Мбайт (3%)
Заголовок : Махонько
Язык : Russian
ServiceKind/String : Complete Main
Default : Нет
Forced : Нет

Аудио #3
Идентификатор : 4
Формат : AC-3
Формат/Информация : Audio Coding 3
Коммерческое название : Dolby Digital
Идентификатор кодека : A_AC3
Продолжительность : 1 ч. 35 м.
Вид битрейта : Постоянный
Битрейт : 192 Кбит/сек
Каналы : 2 канала
Channel layout : L R
Частота : 48,0 КГц
Частота кадров : 31,250 кадров/сек (1536 SPF)
Битовая глубина : 16 бит
Метод сжатия : С потерями
Размер потока : 131 Мбайт (3%)
Заголовок : Горчаков
Язык : Russian
ServiceKind/String : Complete Main
Default : Нет
Forced : Нет

Аудио #4
Идентификатор : 5
Формат : AC-3
Формат/Информация : Audio Coding 3
Коммерческое название : Dolby Digital
Идентификатор кодека : A_AC3
Продолжительность : 1 ч. 35 м.
Вид битрейта : Постоянный
Битрейт : 192 Кбит/сек
Каналы : 2 канала
Channel layout : L R
Частота : 48,0 КГц
Частота кадров : 31,250 кадров/сек (1536 SPF)
Битовая глубина : 16 бит
Метод сжатия : С потерями
Размер потока : 131 Мбайт (3%)
Заголовок : Сербин
Язык : Russian
ServiceKind/String : Complete Main
Default : Нет
Forced : Нет

Аудио #5
Идентификатор : 6
Формат : DTS
Формат/Информация : Digital Theater Systems
Идентификатор кодека : A_DTS
Продолжительность : 1 ч. 35 м.
Вид битрейта : Постоянный
Битрейт : 1509 Кбит/сек
Каналы : 2 канала
Channel layout : L R
Частота : 48,0 КГц
Частота кадров : 93,750 кадра/сек (512 SPF)
Битовая глубина : 24 бит
Метод сжатия : С потерями
Размер потока : 1,01 Гбайт (21%)
Язык : English
Default : Нет
Forced : Нет

Текст
Идентификатор : 7
Формат : UTF-8
Идентификатор кодека : S_TEXT/UTF8
Идентификатор кодека/Информация : UTF-8 Plain Text
Язык : English
Default : Нет
Forced : Нет

Меню
00:00:00.000 : en:
00:04:25.599 : en:
00:08:44.148 : en:
00:11:06.499 : en:
00:16:06.507 : en:
00:19:59.532 : en:
00:23:57.227 : en:
00:28:16.194 : en:
00:32:17.561 : en:
00:37:09.768 : en:
00:39:01.381 : en:
00:42:16.909 : en:
00:46:21.487 : en:
00:51:40.723 : en:
00:54:49.495 : en:
00:59:46.833 : en:
01:03:25.510 : en:
01:08:08.293 : en:
01:11:27.700 : en:
01:13:40.041 : en:
01:19:18.629 : en:
01:22:36.702 : en:
01:27:45.260 : en:
01:33:10.502 : en:

pb.wtf



Скачать Хладнокровный убийца через торрент https://img11.lostpic.net/2017/06/12/aa29261248030b0bcf91fd4d43420fe7.jpg Скачать фильм Хладнокровный убийца через торрент бесплантно в хорошем качестве Описание: Серия событий, кажущихся не связанными между собой, приводит к раскрытию крупнейшего преступления. Сумасшедший главарь мафии ... 5 10 1
Info! Золотая раздача, скачанное не засчитывается.
Торрент: Зарегистрирован [2019-08-31 17:35] · скачан: 6 раз
Статус: √ проверено
Размер: 4.86 GB
Как cкачать? Как скачать Хладнокровный убийца через торрент | qTorrent


>> Регистрируемся здесь <<






Отзывы и комментарии о схеме читаем и пишем здесь: ---> Отзывы и комментарии о схеме

Новые благодарочки в телеграм довольных пользователей:
скриншот   скриншот   скриншот   скриншот   скриншот

31-08-2019 17:39 Хладнокровный убийца Скачать торрент  

Топик был перенесен из форума Оформление раздач (Кино, Видео и ТВ) в форум Классика зарубежного кино


bober100pb.wtf



    Дорогой пользователь! Огромная просьба, поблагодарите релизера, оцените раздачу и оставьте свои комментарий, если Вы скачали Хладнокровный убийца через торрент бесплатно! Внесите свою лепту в развитие PiratBit!
    Комментировать посты могут только пользователи прошедшие не сложную регистрацию
    Показать сообщения:    

    Хладнокровный убийца через торрент
    Скачать бесплатно Хладнокровный убийца
    Хладнокровный убийца скачать торрент
    Хладнокровный убийца смотреть онлайн
    Cкачать фильм Хладнокровный убийца бесплатно
    Хладнокровный убийца скачать торрент в хорошем качестве
    Хладнокровный убийца смотреть онлайн бесплатно в хорошем качестве


    Вы не можете начинать темы
    Вы не можете отвечать на сообщения
    Вы не можете редактировать свои сообщения
    Вы не можете удалять свои сообщения
    Вы не можете голосовать в опросах
    Вы не можете прикреплять файлы к сообщениям
    Вы можете скачивать файлы