новый адрес
Ссылка на приватное зеркало всего за 1$. Внимание количество ограничено!!!

iTunes

1+1

iTunes

мы

WEB-DL

1

iTunes

Чернобыль

iTunes

Ральф против интернета

Лицензия

ПШазам

Лицензия

Оно 2

Лицензия

30
pack

Вам бонус

ВАЖНО

!!Акция!!

Alien_RageХит недели

RePack

Resident Evil 21

ИГРА 18+

pack

RePack

jed

!!Акция!!

Alien_Rage

RePack

fifa19

RePack

Assassins Creed: Odyssey

RePack

NEED FOR SPEED™ PAYBACK

3 сезон

9 сезон

Бесстыжие 9 сезон

Все сериалы

все сериалы на PB.wtf

RePack

FAR CRY 5
Ребята, катастрофически не хватает 1900р. для оплаты серверов за Октябрь (всвязи с блокировками трафик упал в 3 раза), 1-2р., выручайте.
  

Белоснежка. Сказка для взрослых / Blanche comme neige (Анн Фонтен) [2019 г., драма, комедия, WEB-DLRip, Дубляж "iTunes"] pb.wtf

Белоснежка. Сказка для взрослых через торрент pb.wtf

Раздают: 3 [ 0 KB/s ]
Размер: 711 MB | Добавлен: 3 мес. 9 д. назад | Торрент скачан:101 раз
Скачать  

31-08-2019 18:25 Белоснежка. Сказка для взрослых Скачать торрент  

Белоснежка. Сказка для взрослых / Blanche comme neige
Год выпуска: 2019
Страна: Франция, Бельгия / Mandarin Films, Ciné@, Gaumont
Жанр: драма, комедия
Продолжительность: 01:52:17
Перевод: Дубляж iTunes

Режиссер: Анн Фонтен

rating

В ролях: Лу де Лааж, Изабель Юппер, Шарль Берлинг, Дамиен Боннар, Джонатан Коэн, Ричард Фрешетт, Венсан Макен, Пабло Поли, Бенуа Пульворд, Аврора Брутен

Описание: После смерти отца юная и прекрасная сирота Клэр продолжает работать в принадлежавшем ему отеле под руководством авторитарной мачехи Мод. Когда молодой любовник Мод заглядывается на Клэр, ревнивая вдова решает жестоко избавиться от соперницы. Клэр бежит на отдаленную ферму, где встречает семерых мужчин и начинает познания себя и своей сексуальности.

Качество: WEB-DLRip
Формат: AVI
Видео кодек: DivX
Аудио кодек: MP3
Видео: 640x360 (1.78:1), 24.000 fps, DivX Codec 4.x ~747 kbps avg, 0.14 bit/pixel
Аудио: 48 kHz, MPEG Layer 3, 2 ch, ~128.00 kbps avg
скриншот   скриншот   скриншот   скриншот   скриншот   скриншот   скриншот   скриншот  

Общее
Полное имя : F:\ФИЛЬМЫ\Белоснежка. Сказка для взрослых.2019.D.WEB-DLRip.avi
Формат : AVI
Формат/Информация : Audio Video Interleave
Размер файла : 711 Мбайт
Продолжительность : 1 ч. 52 м.
Общий поток : 885 Кбит/сек
Программа кодирования : VirtualDubMod 1.5.10.3 | www.virtualdub-fr.org || (build 2550/release)
Библиотека кодирования : VirtualDubMod build 2550/release

Видео
Идентификатор : 0
Формат : MPEG-4 Visual
Профиль формата : Advanced Simple@L5
Настройки формата : BVOP3 / GMC3 / QPel
Параметр BVOP формата : 3
Параметр QPel формата : Да
Параметр GMC формата : 3 точки перехода
Параметр матрицы формата : Default (MPEG)
Идентификатор кодека : DIVX
Идентификатор кодека/Информация : Project Mayo
Идентификатор кодека/Подсказка : DivX 4
Продолжительность : 1 ч. 52 м.
Битрейт : 748 Кбит/сек
Ширина : 640 пикселей
Высота : 360 пикселей
Соотношение сторон : 16:9
Частота кадров : 24,000 кадра/сек
Цветовое пространство : YUV
Субдискретизация насыщенности : 4:2:0
Битовая глубина : 8 бит
Тип развёртки : Прогрессивная
Метод сжатия : С потерями
Бит/(Пиксели*Кадры) : 0.135
Размер потока : 601 Мбайт (84%)
Библиотека кодирования : XviD 1.2.1 (UTC 2008-12-04)

Аудио
Идентификатор : 1
Формат : MPEG Audio
Версия формата : Version 1
Профиль формата : Layer 3
Настройки формата : Joint stereo / MS Stereo
Идентификатор кодека : 55
Идентификатор кодека/Подсказка : MP3
Продолжительность : 1 ч. 52 м.
Вид битрейта : Постоянный
Битрейт : 128 Кбит/сек
Каналы : 2 канала
Частота : 48,0 КГц
Частота кадров : 41,667 кадра/сек (1152 SPF)
Метод сжатия : С потерями
Размер потока : 103 Мбайт (14%)
Выравнивание : Соединение по промежуткам
Продолжительность промежутка : 42 мс. (1,00 видеокадр)
Время предзагрузки промежутка : 504 мс.
Библиотека кодирования : LAME3.99r
Настройки программы : -m j -V 4 -q 2 -lowpass 17 -b 128

pb.wtf



Скачать Белоснежка. Сказка для взрослых через торрент http://pic1.kartinco.top/images/12/yxla3.jpg Скачать фильм Белоснежка. Сказка для взрослых через торрент бесплантно в хорошем качестве Описание: После смерти отца юная и прекрасная сирота Клэр продолжает работать в принадлежавшем ему отеле под руководством авторитарной ... 10 10 2
Торрент: Зарегистрирован [2019-08-31 18:25] · скачан: 101 раз
Статус: √ проверено
Размер: 711 MB
Как cкачать? Как скачать Белоснежка. Сказка для взрослых через торрент | qTorrent

% Раздел Тема Автор DL S | L
Фильмы 2019 [DVDrip, WEB-DLRip, HDrip] (DUB, MVO) [ 1.45 GB ] Белоснежка. Сказка для взрослых / Blanche comme neige [2019 WEB-DLRip-AVC] sokol_ok Скачать
78 | 1
Фильмы (WEB-DL 720p, 1080p) [ 3.5 GB ] Белоснежка. Сказка для взрослых / Blanche comme neige [2019 WEB-DL 720p] bober100 Скачать
2 | 0
Фильмы 2019 [DVDrip, WEB-DLRip, HDrip] (DUB, MVO) [ 1.46 GB ] Белоснежка. Сказка для взрослых / Blanche comme neige [2019 WEB-DLRip] bober100 Скачать
5 | 0
Фильмы (WEB-DL 720p, 1080p) [ 4.21 GB ] Белоснежка. Сказка для взрослых / Blanche comme neige [2019 WEB-DL 1080p] bober100 Скачать
5 | 0

28-11-2019 20:33  

Отключить всю рекламу на сайте

    Дорогой пользователь! Огромная просьба, поблагодарите релизера, оцените раздачу и оставьте свои комментарий, если Вы скачали Белоснежка. Сказка для взрослых через торрент бесплатно! Внесите свою лепту в развитие PiratBit!
    Комментировать посты могут только пользователи прошедшие не сложную регистрацию
    Показать сообщения:    

    Белоснежка. Сказка для взрослых через торрент
    Скачать бесплатно Белоснежка. Сказка для взрослых
    Белоснежка. Сказка для взрослых скачать торрент
    Белоснежка. Сказка для взрослых смотреть онлайн
    Cкачать фильм Белоснежка. Сказка для взрослых бесплатно
    Белоснежка. Сказка для взрослых скачать торрент в хорошем качестве
    Белоснежка. Сказка для взрослых смотреть онлайн бесплатно в хорошем качестве


    Вы не можете начинать темы
    Вы не можете отвечать на сообщения
    Вы не можете редактировать свои сообщения
    Вы не можете удалять свои сообщения
    Вы не можете голосовать в опросах
    Вы не можете прикреплять файлы к сообщениям
    Вы можете скачивать файлы