Доктор Стрэндж

Лицензия

Добыча

Дубляж

Уэнсдэй

1 сезон

Тор

Дубляж

В эфире

Дубляж

Там, где раки поют

MVO

Властелин колец

1 сезон

Deluxe

pack

Рекомендуем

30

Пиратка

ВАЖНО

ВАЖНО

Ghostwire

Пиратка

jed

RePack

nioh2

RePack

RDR2

RePack

NEED FOR SPEED™ PAYBACK

RePack

скачать торрент

Кинопоиск HD

Острые козырьки 6 сезон

6 сезон

FAR CRY 6

RePack

скачать торрент

Лицензия

скачать торрент

MVO

1

1 сезон

скачать торрент

1 сезон

скачать торрент

Лицензия

  

Великолепная одержимость / Magnificent Obsession (Джон М. Стал) [1935, драма, мелодрама, BDRip 1080p ] VO (профессиональный)

Великолепная одержимость через торрент pb.wtf

Размер: 9.71 GB | Добавлен: 3 года 3 мес. назад | Торрент скачан:1 раз
Смотреть онлайн | Скачать   

01-09-2019 06:31 Великолепная одержимость Скачать торрент  

Название: Великолепная одержимость
Оригинальное название: Magnificent Obsession
Год выпуска: 1935
Страна: США
Жанр: драма, мелодрама
Продолжительность: 01:42:11
Перевод: профессиональный одноголосый

Режиссер: Джон М. Стал
В ролях: Айрин Данн, Роберт Тейлор (I), Чарльз Баттерворф, Бетти Фернесс, Сара Хейден, Ральф Морган, Генри Арметта, Гилберт Эмери, Артур Тричер, Берил Мерсер, Элис Арделл, Артур Хойт, Кора Сью Коллинз, Мэрион Клэйтон

Описание: Плейбой Боб Меррик попадает в аварию, катаясь на быстроходной лодке на одном из озёр Калифорнии. При спасении жизни Боба гибнет местный доктор. Желая сгладить свою вину, Меррик посещает вдову доктора Хелен и безумно в неё влюбляется. Однако Меррик опять попадает в аварию, в результате которой уже Хелен теряет зрение. Преодолевая стыд, Меррик делает всё что в его силах, чтобы завоевать сердце Хелен... По мотивам романа Ллойда Дугласа (1929).



Качество: BDRip 1080p
Формат: MKV
Видео: MPEG-4 AVC, 13.2 Mбит/с, 1468x1080, 23.976 Кадр/с
Аудио 1: русский, AC3, 192 kbps, 2 ch, 48 kHz [закадровый одноголосый, INGVAR55 «СВЕТЛА»]
Аудио 2: английский, AC3, 192 kbps, 1 ch, 48 kHz [оригинал]
Субтитры: английские
Главы/чаптеры
Общее
Уникальный идентификатор : 205452769853472501629605512402984752130 (0x9A90C3A01BBF9A119A701D2D9ED3D402)
Полное имя : D:\Video\Великолепная одержимость.1935.BDRip 1080p by msltel.mkv
Формат : Matroska
Версия формата : Version 4
Размер файла : 9,71 Гбайт
Продолжительность : 1 ч. 42 м.
Общий поток : 13,6 Мбит/сек
Название фильма : Rip by msltel
Дата кодирования : UTC 2019-08-31 02:21:40
Программа кодирования : mkvmerge v8.2.0 ('World of Adventure') 64bit
Библиотека кодирования : libebml v1.3.1 + libmatroska v1.4.2

Видео
Идентификатор : 1
Формат : AVC
Формат/Информация : Advanced Video Codec
Профиль формата : [email protected]
Настройки формата : CABAC / 4 Ref Frames
Параметр CABAC формата : Да
Параметр RefFrames формата : 4 кадра
Идентификатор кодека : V_MPEG4/ISO/AVC
Продолжительность : 1 ч. 42 м.
Битрейт : 13,2 Мбит/сек
Ширина : 1468 пикселей
Высота : 1080 пикселей
Соотношение сторон : 4:3
Режим частоты кадров : Постоянный
Частота кадров : 23,976 (24000/1001) кадра/сек
Цветовое пространство : YUV
Субдискретизация насыщенности : 4:2:0
Битовая глубина : 8 бит
Тип развёртки : Прогрессивная
Бит/(Пиксели*Кадры) : 0.348
Размер потока : 9,44 Гбайт (97%)
Библиотека кодирования : x264 core 157 r2935 545de2f
Настройки программы : cabac=1 / ref=4 / deblock=1:-2:-2 / analyse=0x3:0x113 / me=umh / subme=11 / psy=1 / psy_rd=1.00:0.15 / mixed_ref=1 / me_range=32 / chroma_me=1 / trellis=2 / 8x8dct=1 / cqm=0 / deadzone=21,11 / fast_pskip=0 / chroma_qp_offset=-3 / threads=6 / lookahead_threads=1 / sliced_threads=0 / nr=0 / decimate=1 / interlaced=0 / bluray_compat=0 / constrained_intra=0 / bframes=13 / b_pyramid=2 / b_adapt=2 / b_bias=0 / direct=1 / weightb=1 / open_gop=0 / weightp=2 / keyint=230 / keyint_min=23 / scenecut=40 / intra_refresh=0 / rc_lookahead=40 / rc=crf / mbtree=1 / crf=22.0 / qcomp=0.60 / qpmin=0 / qpmax=69 / qpstep=4 / vbv_maxrate=50000 / vbv_bufsize=62500 / crf_max=0.0 / nal_hrd=none / filler=0 / ip_ratio=1.40 / aq=1:1.00
Язык : English
Default : Да
Forced : Нет

Аудио #1
Идентификатор : 2
Формат : AC-3
Формат/Информация : Audio Coding 3
Коммерческое название : Dolby Digital
Идентификатор кодека : A_AC3
Продолжительность : 1 ч. 42 м.
Вид битрейта : Постоянный
Битрейт : 192 Кбит/сек
Каналы : 2 канала
ChannelLayout : L R
Частота : 48,0 КГц
Частота кадров : 31,250 кадров/сек (1536 SPF)
Битовая глубина : 16 бит
Метод сжатия : С потерями
Размер потока : 140 Мбайт (1%)
Заголовок : INGVAR55 «СВЕТЛА»
Язык : Russian
ServiceKind/String : Complete Main
Default : Да
Forced : Нет

Аудио #2
Идентификатор : 3
Формат : AC-3
Формат/Информация : Audio Coding 3
Коммерческое название : Dolby Digital
Идентификатор кодека : A_AC3
Продолжительность : 1 ч. 42 м.
Вид битрейта : Постоянный
Битрейт : 192 Кбит/сек
Каналы : 1 канал
ChannelLayout : C
Частота : 48,0 КГц
Частота кадров : 31,250 кадров/сек (1536 SPF)
Битовая глубина : 16 бит
Метод сжатия : С потерями
Размер потока : 140 Мбайт (1%)
Заголовок : original
Язык : English
ServiceKind/String : Complete Main
Default : Нет
Forced : Нет

Текст
Идентификатор : 4
Формат : UTF-8
Идентификатор кодека : S_TEXT/UTF8
Идентификатор кодека/Информация : UTF-8 Plain Text
Продолжительность : 1 ч. 39 м.
Битрейт : 79 бит/сек
ElementCount : 1441
Размер потока : 57,7 Кбайт (0%)
Заголовок : английские
Язык : English
Default : Нет
Forced : Нет

Меню
00:00:00.000 : en:Happy Family
00:03:44.349 : en:Tragic Timing
00:06:45.405 : en:“Used it all up”
00:11:45.330 : en:Bob Merrick
00:18:23.394 : en:Breakdown
00:23:10.681 : en:The Escapee Returns
00:25:31.780 : en:Boys’ Night Out
00:30:34.666 : en:Haunted
00:34:26.898 : en:“The Source of Infinite Power”
00:41:51.426 : en:Doing Good
00:46:18.526 : en:Accident
00:50:28.984 : en:Stranger in the Park
00:58:06.149 : en:Good News for Mrs. Hudson
01:04:23.443 : en:Disappointment in Paris
01:06:51.466 : en:Reunion
01:14:05.441 : en:A Night to Remember
01:20:18.981 : en:Unexpected Departure
01:23:56.531 : en:Triumphant Return
01:26:57.212 : en:A Magnificent Obsession
01:32:02.267 : en:The Operation
01:36:47.552 : en:Tomorrow



Скачать Великолепная одержимость через торрент https://c.radikal.ru/c06/1908/98/8bb89360a277.jpg Скачать, смотреть онлайн Великолепная одержимость бесплантно в хорошем качестве Описание: Плейбой Боб Меррик попадает в аварию, катаясь на быстроходной лодке на одном из озёр Калифорнии. При спасении жизни Боба гибнет ... 10 10 1
Торрент: Зарегистрирован [2019-09-01 06:31] · скачан: 1 раз
Статус: √ проверено
Размер: 9.71 GB
Как cкачать? Как скачать Великолепная одержимость через торрент | UTorrent

% Раздел Тема Автор DL S | L
Классика зарубежного кино [ 3.69 GB ] Великолепная одержимость / Magnificent Obsession | | 720p msltel Скачать
1 | 0

28-11-2019 20:33  


Отключить вcю реклaмy на сайте, в т.ч. и в плеере онлайн просмотра!

    Дорогой пользователь! Огромная просьба, поблагодарите релизера, оцените раздачу и оставьте свои комментарий, если Вы скачали Великолепная одержимость через торрент бесплатно!!
    Комментировать посты могут только пользователи прошедшие не сложную регистрацию
    Показать сообщения:    


    Великолепная одержимость через торрент
    Скачать бесплатно Великолепная одержимость
    Великолепная одержимость скачать торрент
    Великолепная одержимость смотреть онлайн
    Cкачать фильм Великолепная одержимость бесплатно
    Великолепная одержимость скачать торрент в хорошем качестве
    Великолепная одержимость смотреть онлайн бесплатно в хорошем качестве
    Вы не можете начинать темы
    Вы не можете отвечать на сообщения
    Вы не можете редактировать свои сообщения
    Вы не можете удалять свои сообщения
    Вы не можете голосовать в опросах
    Вы не можете прикреплять файлы к сообщениям
    Вы можете скачивать файлы
    Великолепная одержимость / Magnificent Obsession [1935, драма, мелодрама, BDRip 1080p ] VO смотреть онлайн, скачать торрент picoco.icu