Ссылка на приватное зеркало нашего сайта всего за 1$. Внимание количество ограничено!!!

2 сезон

iTunes

1 сезон

1

2 сезон

2 сезон

iTunes

1 сезон

RePack

30

Ultimate

ВАЖНО

ИГРА 18+

pack

RePack

MK11
pack

Забери бонус

RePack

jed

!!Акция!!

Alien_Rage

RePack

fifa19

RePack

Assassins Creed: Odyssey

RePack

NEED FOR SPEED™ PAYBACK

4 сезон

9 сезон

Бесстыжие 9 сезон

Все сериалы

все сериалы на PB.wtf

RePack

FAR CRY 5
  

Мой друг дельфин Эхо / Dolphin Kick (Филип Марлатт) [2019, Приключения, WEB-DL 1080p] [DUB] [iTunes] pb.wtf

Мой друг дельфин Эхо через торрент pb.wtf

Раздают: 1 [ 0 KB/s ]
Размер: 3.44 GB | Добавлен: 1 год 2 мес. назад | Торрент скачан:69 раз
Скачать  

01-09-2019 07:33 Мой друг дельфин Эхо Скачать торрент  

Мой друг дельфин Эхо / Dolphin Kick Год выпуска: 2019
Страна: США
Жанр: Приключения
Продолжительность: 01:29:46
Перевод: Дублированный | iTunes
Субтитры: отсутствуют

Режиссер: Филип Марлатт

В ролях:

Тайлер Джейд Никсон, Аксель Маккой, Трэвис Маккой, Алексис Лодер, Девон Гоу, Тим Оглтри, ЛаВон Хэмилтон, Майя Симмонс, Куддус Ньютон, Томи Калмер

Описание:

Отдыхая со своей семьей на тропическом острове на Багамах, 10-ти летний Люк знакомится с дружелюбным и игривым дельфином Эхо. Дельфин становится верным другом Люка, с которым он проводит всё своё свободное время, ныряя в волнах и играя целыми днями напролёт. Однажды дельфин Эхо оказывается в опасности. Люк со своей сестрой разрабатывают план, чтобы спасти их нового друга дельфина.

rating

Качество: WEB-DL 1080p
Формат: MKV

Видео: MPEG-4 AVC, 5000 Кбит/с, 1920x1080
Аудио: AC3, 6 ch, 384 Кбит/с
скриншот  скриншот  скриншот  

Общее
Уникальный идентификатор : 215786001075359293206631387984599740719 (0xA256DF4246FBFD1CB1220832581C712F)
Полное имя : Delfin.Eho.2019.WEB-DL.1080p.ELEKTRI4KA.UNIONGANG.mkv
Формат : Matroska
Версия формата : Version 4
Размер файла : 3,44 Гбайт
Продолжительность : 1 ч. 29 м.
Общий поток : 5481 Кбит/сек
Дата кодирования : UTC 2019-06-30 09:45:49
Программа кодирования : mkvmerge v8.3.0 ('Over the Horizon') 64bit
Библиотека кодирования : libebml v1.3.1 + libmatroska v1.4.2

Видео
Идентификатор : 1
Формат : AVC
Формат/Информация : Advanced Video Codec
Профиль формата : High@L4
Настройки формата : CABAC / 4 Ref Frames
Параметр CABAC формата : Да
Параметр RefFrames формата : 4 кадра
Идентификатор кодека : V_MPEG4/ISO/AVC
Продолжительность : 1 ч. 29 м.
Битрейт : 5120 Кбит/сек
Ширина : 1920 пикселей
Высота : 1080 пикселей
Соотношение сторон : 16:9
Режим частоты кадров : Постоянный
Частота кадров : 24,000 кадра/сек
Цветовое пространство : YUV
Субдискретизация насыщенности : 4:2:0
Битовая глубина : 8 бит
Тип развёртки : Прогрессивная
Бит/(Пиксели*Кадры) : 0.103
Размер потока : 3,19 Гбайт (93%)
Заголовок : ELEKTRI4KA.UNIONGANG
Библиотека кодирования : x264 core 148
Настройки программы : cabac=1 / ref=3 / deblock=1:0:0 / analyse=0x3:0x113 / me=hex / subme=7 / psy=1 / psy_rd=1.00:0.00 / mixed_ref=1 / me_range=16 / chroma_me=1 / trellis=1 / 8x8dct=1 / cqm=0 / deadzone=21,11 / fast_pskip=1 / chroma_qp_offset=-2 / threads=34 / lookahead_threads=5 / sliced_threads=0 / nr=0 / decimate=1 / interlaced=0 / bluray_compat=0 / constrained_intra=0 / bframes=6 / b_pyramid=2 / b_adapt=1 / b_bias=0 / direct=1 / weightb=1 / open_gop=0 / weightp=2 / keyint=46 / keyint_min=24 / scenecut=0 / intra_refresh=0 / rc_lookahead=40 / rc=2pass / mbtree=1 / bitrate=5120 / ratetol=1.0 / qcomp=0.60 / qpmin=0 / qpmax=69 / qpstep=4 / cplxblur=20.0 / qblur=0.5 / vbv_maxrate=7680 / vbv_bufsize=20480 / nal_hrd=none / filler=0 / ip_ratio=1.40 / aq=1:1.00
Язык : English
Default : Да
Forced : Нет

Аудио
Идентификатор : 2
Формат : AC-3
Формат/Информация : Audio Coding 3
Коммерческое название : Dolby Digital
Идентификатор кодека : A_AC3
Продолжительность : 1 ч. 29 м.
Вид битрейта : Постоянный
Битрейт : 384 Кбит/сек
Каналы : 6 каналов
Channel layout : L R C LFE Ls Rs
Частота : 48,0 КГц
Частота кадров : 31,250 кадров/сек (1536 SPF)
Битовая глубина : 16 бит
Метод сжатия : С потерями
Размер потока : 247 Мбайт (7%)
Заголовок : iTunes
Язык : Russian
ServiceKind/String : Complete Main
Default : Да
Forced : Нет

pb.wtf



Скачать Мой друг дельфин Эхо через торрент https://c.radikal.ru/c28/1904/9a/067b713c688e.jpg Скачать фильм Мой друг дельфин Эхо через торрент бесплантно в хорошем качестве Описание: Отдыхая со своей семьей на тропическом острове на Багамах, 10-ти летний Люк знакомится с дружелюбным и игривым дельфином Эхо. ... 10 10 3
Торрент: Зарегистрирован [2019-09-01 07:33] · скачан: 69 раз
Статус: √ проверено
Размер: 3.44 GB
Как cкачать? Как скачать Мой друг дельфин Эхо через торрент | qTorrent

% Раздел Тема Автор DL S | L
T Фильмы (мультфильмы) cо спонсором показа (Новинки AVI/MKV) [ 3.49 GB ] Мой друг дельфин Эхо / Dolphin Kick [2019 WEB-DL 720p] DUB [Line] bober100 Скачать
1 | 0
T Фильмы (мультфильмы) cо спонсором показа (Новинки AVI/MKV) [ 1.37 GB ] Мой друг дельфин Эхо / Dolphin Kick [2019 WEB-DLRip] DUB [Line] bober100 Скачать
1 | 0
T Фильмы 2019-2020 [DVDrip, WEB-DLRip, HDrip] (DUB, MVO) [ 1.37 GB ] Мой друг дельфин Эхо / Dolphin Kick [2019 DVDRip] MVO [HDREzka Studio] - ExKinoRay Enigma2010 Скачать
13 | 0

28-11-2019 20:33  

Отключить всю рекламу на сайте

    Дорогой пользователь! Огромная просьба, поблагодарите релизера, оцените раздачу и оставьте свои комментарий, если Вы скачали Мой друг дельфин Эхо через торрент бесплатно! Внесите свою лепту в развитие PiratBit!
    Комментировать посты могут только пользователи прошедшие не сложную регистрацию
    Показать сообщения:    

    Мой друг дельфин Эхо через торрент
    Скачать бесплатно Мой друг дельфин Эхо
    Мой друг дельфин Эхо скачать торрент
    Мой друг дельфин Эхо смотреть онлайн
    Cкачать фильм Мой друг дельфин Эхо бесплатно
    Мой друг дельфин Эхо скачать торрент в хорошем качестве
    Мой друг дельфин Эхо смотреть онлайн бесплатно в хорошем качестве


    Вы не можете начинать темы
    Вы не можете отвечать на сообщения
    Вы не можете редактировать свои сообщения
    Вы не можете удалять свои сообщения
    Вы не можете голосовать в опросах
    Вы не можете прикреплять файлы к сообщениям
    Вы можете скачивать файлы