MEGA SALE -50% FORZA HORIZON 4 ULTIMATE+ВСЕ DLC+ОНЛАЙН всего за 599р. 299 руб. (супер цена). Внимание количество ограничено!!!

iTunes

1+1

iTunes

мы

iTunes

1

iTunes

Чернобыль

iTunes

Ральф против интернета

Лицензия

ПШазам

Лицензия

Игра престолов

Лицензия

30
pack

ВАЖНО

!!Акция!!

Alien_RageХит недели

RePack

Resident Evil 21

ИГРА 18+

pack

RePack

Metro:Exodus

!!Акция!!

Alien_Rage

RePack

fifa19

RePack

Assassins Creed: Odyssey

RePack

NEED FOR SPEED™ PAYBACK

3 сезон

9 сезон

Бесстыжие 9 сезон

Все сериалы

все сериалы на PB.wtf

RePack

FAR CRY 5
Ребята, катастрофически не хватает 7730р. для оплаты серверов за АВГУСТ (всвязи с блокировками трафик упал в 3 раза), 1-2р., выручайте.
  

Повторный брак / Les maries de l'an deux (Жан-Поль Раппно) [1971, боевик, мелодрама, комедия, приключения, BDRip 720p by msltel] DUB, 2 x MVO pb.wtf

Повторный брак через торрент pb.wtf

Раздают: 1 [ 0 KB/s ]
Размер: 4.19 GB | Добавлен: 16 д. назад | Торрент скачан:2 раза
Скачать  

01-09-2019 09:40 Повторный брак Скачать торрент  

Название: Повторный брак
Оригинальное название: Les maries de l'an deux
Год выпуска: 1971
Страна: Франция, Италия, Румыния
Жанр: боевик, мелодрама, комедия, приключения
Продолжительность: 01:38:37
Перевод: дублированный, закадровый многоголосый

Режиссер: Жан-Поль Раппно
В ролях: Жан-Поль Бельмондо, Марлен Жобер, Лаура Антонелли, Мишель Оклер, Жюльен Гиомар, Марио Давид, Шарль Деннер, Жорж Бэллер, Поль Кроше, Марк Дюдикур, Сами Фрэй, Сим (I)

О фильме: Француз Николя Фильбер открыл для себя Америку в 1787 году, когда нелегально пересек Атлантику в трюме корабля Индийской компании. У Николя не было ни денег, ни документов, и его посадили в тюрьму. Впрочем, в тюрьме ловкий молодой человек пробыл только три дня, после чего устроился ночным сторожем. А через пять лет умный и находчивый Фильбер сделал блестящую карьеру в Новом Свете и собирался жениться на дочери богатого судовладельца. Удачному браку мешало только одно обстоятельство — Николя был уже женат во Франции. Теперь, чтобы разыскать свою "французскую" жену Шарлотту и оформить с ней развод, честолюбивый жених должен отправиться в страну, из которой бежал. На календаре 1793 год, во Франции революция, и путешествие обещает быть не только увлекательным, но и опасным...



Качество: BDRip 720p
Формат: MKV
Видео: MPEG-4 AVC, 5127 Кбит/с, 1196x720
Аудио 1: русский, AC3, 192 kbps, 2 ch, 48 kHz [дублированный, с добавлением MVO]
Аудио 2: русский, AC3, 192 kbps, 2 ch, 48 kHz [дублированный, с субтитрами на места без перевода]
Аудио 3: русский, AC3, 192 kbps, 2 ch, 48 kHz [закадровый многоголосый, 5 канал]
Аудио 4: русский, AC3, 192 kbps, 2 ch, 48 kHz [закадровый многоголосый]
Аудио 5: французский, AC3, 192 kbps, 2 ch, 48 kHz [оригинал]
Субтитры: русские (на места без перевода)
Главы/чаптеры
Общее
Уникальный идентификатор : 223646367025251646342714972517136660159 (0xA840B938A7A6E81896987CF60670F6BF)
Полное имя : D:\Video\Повторный брак.1971.BDRip 720p by msltel.mkv
Формат : Matroska
Версия формата : Version 4
Размер файла : 4,19 Гбайт
Продолжительность : 1 ч. 38 м.
Общий поток : 6090 Кбит/сек
Название фильма : Rip by msltel
Дата кодирования : UTC 2019-08-31 02:05:58
Программа кодирования : mkvmerge v8.2.0 ('World of Adventure') 64bit
Библиотека кодирования : libebml v1.3.1 + libmatroska v1.4.2

Видео
Идентификатор : 1
Формат : AVC
Формат/Информация : Advanced Video Codec
Профиль формата : High@L4.1
Настройки формата : CABAC / 9 Ref Frames
Параметр CABAC формата : Да
Параметр RefFrames формата : 9 кадров
Идентификатор кодека : V_MPEG4/ISO/AVC
Продолжительность : 1 ч. 38 м.
Битрейт : 5127 Кбит/сек
Ширина : 1196 пикселей
Высота : 720 пикселей
Соотношение сторон : 5:3
Режим частоты кадров : Постоянный
Частота кадров : 24,000 кадра/сек
Цветовое пространство : YUV
Субдискретизация насыщенности : 4:2:0
Битовая глубина : 8 бит
Тип развёртки : Прогрессивная
Бит/(Пиксели*Кадры) : 0.248
Размер потока : 3,53 Гбайт (84%)
Библиотека кодирования : x264 core 157 r2935 545de2f
Настройки программы : cabac=1 / ref=9 / deblock=1:-2:-2 / analyse=0x3:0x113 / me=umh / subme=11 / psy=1 / psy_rd=1.00:0.15 / mixed_ref=1 / me_range=32 / chroma_me=1 / trellis=2 / 8x8dct=1 / cqm=0 / deadzone=21,11 / fast_pskip=0 / chroma_qp_offset=-3 / threads=6 / lookahead_threads=1 / sliced_threads=0 / nr=0 / decimate=1 / interlaced=0 / bluray_compat=0 / constrained_intra=0 / bframes=6 / b_pyramid=2 / b_adapt=2 / b_bias=0 / direct=1 / weightb=1 / open_gop=0 / weightp=2 / keyint=230 / keyint_min=23 / scenecut=40 / intra_refresh=0 / rc_lookahead=40 / rc=crf / mbtree=1 / crf=18.0 / qcomp=0.60 / qpmin=0 / qpmax=69 / qpstep=4 / vbv_maxrate=50000 / vbv_bufsize=62500 / crf_max=0.0 / nal_hrd=none / filler=0 / ip_ratio=1.40 / aq=1:1.00
Язык : French
Default : Да
Forced : Нет

Аудио #1
Идентификатор : 2
Формат : AC-3
Формат/Информация : Audio Coding 3
Коммерческое название : Dolby Digital
Идентификатор кодека : A_AC3
Продолжительность : 1 ч. 38 м.
Вид битрейта : Постоянный
Битрейт : 192 Кбит/сек
Каналы : 2 канала
ChannelLayout : L R
Частота : 48,0 КГц
Частота кадров : 31,250 кадров/сек (1536 SPF)
Битовая глубина : 16 бит
Метод сжатия : С потерями
Размер потока : 135 Мбайт (3%)
Заголовок : DUB с добавлением MVO
Язык : Russian
ServiceKind/String : Complete Main
Default : Да
Forced : Нет

Аудио #2
Идентификатор : 3
Формат : AC-3
Формат/Информация : Audio Coding 3
Коммерческое название : Dolby Digital
Идентификатор кодека : A_AC3
Продолжительность : 1 ч. 38 м.
Вид битрейта : Постоянный
Битрейт : 192 Кбит/сек
Каналы : 2 канала
ChannelLayout : L R
Частота : 48,0 КГц
Частота кадров : 31,250 кадров/сек (1536 SPF)
Битовая глубина : 16 бит
Метод сжатия : С потерями
Размер потока : 135 Мбайт (3%)
Заголовок : DUB с субтитрами на места без перевода
Язык : Russian
ServiceKind/String : Complete Main
Default : Нет
Forced : Нет

Аудио #3
Идентификатор : 4
Формат : AC-3
Формат/Информация : Audio Coding 3
Коммерческое название : Dolby Digital
Идентификатор кодека : A_AC3
Продолжительность : 1 ч. 38 м.
Вид битрейта : Постоянный
Битрейт : 192 Кбит/сек
Каналы : 2 канала
ChannelLayout : L R
Частота : 48,0 КГц
Частота кадров : 31,250 кадров/сек (1536 SPF)
Битовая глубина : 16 бит
Метод сжатия : С потерями
Размер потока : 135 Мбайт (3%)
Заголовок : MVO 5 канал
Язык : Russian
ServiceKind/String : Complete Main
Default : Нет
Forced : Нет

Аудио #4
Идентификатор : 5
Формат : AC-3
Формат/Информация : Audio Coding 3
Коммерческое название : Dolby Digital
Идентификатор кодека : A_AC3
Продолжительность : 1 ч. 38 м.
Вид битрейта : Постоянный
Битрейт : 192 Кбит/сек
Каналы : 2 канала
ChannelLayout : L R
Частота : 48,0 КГц
Частота кадров : 31,250 кадров/сек (1536 SPF)
Битовая глубина : 16 бит
Метод сжатия : С потерями
Размер потока : 135 Мбайт (3%)
Заголовок : MVO
Язык : Russian
ServiceKind/String : Complete Main
Default : Нет
Forced : Нет

Аудио #5
Идентификатор : 6
Формат : AC-3
Формат/Информация : Audio Coding 3
Коммерческое название : Dolby Digital
Идентификатор кодека : A_AC3
Продолжительность : 1 ч. 38 м.
Вид битрейта : Постоянный
Битрейт : 192 Кбит/сек
Каналы : 2 канала
ChannelLayout : L R
Частота : 48,0 КГц
Частота кадров : 31,250 кадров/сек (1536 SPF)
Битовая глубина : 16 бит
Метод сжатия : С потерями
Размер потока : 135 Мбайт (3%)
Заголовок : original
Язык : French
ServiceKind/String : Complete Main
Default : Нет
Forced : Нет

Текст
Идентификатор : 7
Формат : UTF-8
Идентификатор кодека : S_TEXT/UTF8
Идентификатор кодека/Информация : UTF-8 Plain Text
Продолжительность : 1 ч. 27 м.
Битрейт : 10 бит/сек
ElementCount : 127
Размер потока : 6,83 Кбайт (0%)
Заголовок : русские на места без перевода
Язык : Russian
Default : Нет
Forced : Нет

Меню
00:00:00.000 : fr:Chapter 1
00:12:37.833 : fr:Chapter 2
00:17:30.125 : fr:Chapter 3
00:33:49.125 : fr:Chapter 4
00:52:13.750 : fr:Chapter 5
00:59:28.208 : fr:Chapter 6
01:06:57.791 : fr:Chapter 7
01:11:25.000 : fr:Chapter 8
01:18:29.625 : fr:Chapter 9
01:26:59.666 : fr:Chapter 10
01:32:09.458 : fr:Chapter 11
01:36:11.916 : fr:Chapter 12
pb.wtf



Скачать Повторный брак через торрент https://d.radikal.ru/d13/1909/6d/3a1758d4fa77.jpg Скачать фильм Повторный брак через торрент бесплантно в хорошем качестве О фильме: Француз Николя Фильбер открыл для себя Америку в 1787 году, когда нелегально пересек Атлантику в трюме корабля Индийской ... 5 10 1
Торрент: Зарегистрирован [2019-09-01 09:40] · скачан: 2 раз
Статус: √ проверено
Размер: 4.19 GB
Как cкачать? Как скачать Повторный брак через торрент | qTorrent


>> Регистрируемся здесь <<






Отзывы и комментарии о схеме читаем и пишем здесь: ---> Отзывы и комментарии о схеме

Новые благодарочки в телеграм довольных пользователей:
скриншот   скриншот   скриншот   скриншот   скриншот
    Дорогой пользователь! Огромная просьба, поблагодарите релизера, оцените раздачу и оставьте свои комментарий, если Вы скачали Повторный брак через торрент бесплатно! Внесите свою лепту в развитие PiratBit!
    Комментировать посты могут только пользователи прошедшие не сложную регистрацию
    Показать сообщения:    

    Повторный брак через торрент
    Скачать бесплатно Повторный брак
    Повторный брак скачать торрент
    Повторный брак смотреть онлайн
    Cкачать фильм Повторный брак бесплатно
    Повторный брак скачать торрент в хорошем качестве
    Повторный брак смотреть онлайн бесплатно в хорошем качестве


    Вы не можете начинать темы
    Вы не можете отвечать на сообщения
    Вы не можете редактировать свои сообщения
    Вы не можете удалять свои сообщения
    Вы не можете голосовать в опросах
    Вы не можете прикреплять файлы к сообщениям
    Вы можете скачивать файлы