Ссылка на приватное зеркало нашего сайта всего за 1$. Внимание количество ограничено!!!

2 сезон

iTunes

1 сезон

1

iTunes

iTunes

iTunes

1 сезон

RePack

30

ИГРА 18+

pack

ВАЖНО

!!Акция!!

Alien_RageХит недели

RePack

MK11
pack

Забери бонус

RePack

jed

!!Акция!!

Alien_Rage

RePack

fifa19

RePack

Assassins Creed: Odyssey

RePack

NEED FOR SPEED™ PAYBACK

4 сезон

9 сезон

Бесстыжие 9 сезон

Все сериалы

все сериалы на PB.wtf

RePack

FAR CRY 5
  

Святая ложь / Серии: 1-2 из 2 (Андрей Селиванов) [2019, Мелодрама, WEB-DLRip-AVC] pb.wtf

Святая ложь через торрент pb.wtf

Размер: 2.27 GB | Добавлен: 1 год 1 мес. назад | Торрент скачан:31 раз
Скачать  

01-09-2019 13:27 Святая ложь Скачать торрент  

Святая ложь
Год выпуска: 2019
Страна: Россия
Жанр: Мелодрама
Продолжительность: ~ 01:30:00 серия
Субтитры: отсутствуют

Режиссер: Андрей Селиванов



В ролях: Елена Шилова, Дмитрий Миллер, Илья Акинтьев, Марина Коняшкина, Людмила Чиркова, Анастасия Шаповал

Описание: На какие жертвы можно пойти ради любимого человека? И возможно ли пережить предательство того, кто еще вчера был так близок?.. Светлана и Дмитрий влюблены и собираются пожениться. Но счастливым мечтам, увы, не суждено сбыться. Незадолго до свадьбы на влюбленных нападают уличные хулиганы, и эта встреча оборачивается настоящей трагедией. В драке Дмитрий убивает одного из бандитов. Светлана решает во что бы то ни стало спасти любимого – она берет вину на себя, и сама попадает за решетку. Впереди женщину ждут тяготы и страшное предательство, а, главное, неожиданное появление таинственного дара – видеть будущее. С этого момента жизнь Светланы резко изменится, но вот в какую сторону – большой вопрос…

Качество: WEB-DLRip-AVC
Формат: MKV

Видео: 1024x576, (16:9), 25 fps, AVC MPEG-4 (x264), High@L4.1 ~ 1600 kbps , 0.109 bit/pixel
Аудио: 48 kHz, АС3, 2/0 (L,R), ~192.00 kbps avg
скриншот  скриншот  скриншот  скриншот  

Общее
Уникальный идентификатор : 180157814370866838841361982991382714289 (0x878922086F9448AEA2E4CE9FF95D97B1)
Полное имя : C:\Святая ложь.(2019).WEB-DLRip.(AVC).Files-x\01.Святая ложь.(2019).WEB-DLRip.(AVC).by.Серый1779.Files-x.mkv
Формат : Matroska
Версия формата : Version 2
Размер файла : 1,13 Гбайт
Продолжительность : 1 ч. 30 м.
Общий поток : 1794 Кбит/сек
Дата кодирования : UTC 2019-09-01 07:39:45
Программа кодирования : mkvmerge v7.8.0 (''River Man'') 32bit built on Apr 3 2015 12:11:22
Библиотека кодирования : libebml v1.3.1 + libmatroska v1.4.2

Видео
Идентификатор : 1
Формат : AVC
Формат/Информация : Advanced Video Codec
Профиль формата : High@L4.1
Настройки формата : CABAC / 9 Ref Frames
Параметр CABAC формата : Да
Параметр RefFrames формата : 9 кадров
Идентификатор кодека : V_MPEG4/ISO/AVC
Продолжительность : 1 ч. 30 м.
Битрейт : 1600 Кбит/сек
Ширина : 1024 пикселя
Высота : 576 пикселей
Соотношение сторон : 16:9
Режим частоты кадров : Постоянный
Частота кадров : 25,000 кадров/сек
Цветовое пространство : YUV
Субдискретизация насыщенности : 4:2:0
Битовая глубина : 8 бит
Тип развёртки : Прогрессивная
Бит/(Пиксели*Кадры) : 0.109
Размер потока : 1009 Мбайт (87%)
Библиотека кодирования : x264 core 146 r2538 121396c
Настройки программы : cabac=1 / ref=9 / deblock=1:-2:-1 / analyse=0x3:0x133 / me=umh / subme=9 / psy=1 / psy_rd=1.00:0.15 / mixed_ref=1 / me_range=32 / chroma_me=1 / trellis=2 / 8x8dct=1 / cqm=0 / deadzone=21,11 / fast_pskip=0 / chroma_qp_offset=-3 / threads=18 / lookahead_threads=3 / sliced_threads=0 / nr=0 / decimate=1 / interlaced=0 / bluray_compat=0 / constrained_intra=0 / bframes=9 / b_pyramid=2 / b_adapt=2 / b_bias=0 / direct=1 / weightb=1 / open_gop=0 / weightp=2 / keyint=250 / keyint_min=25 / scenecut=40 / intra_refresh=0 / rc=2pass / mbtree=0 / bitrate=1600 / ratetol=1.0 / qcomp=0.60 / qpmin=0 / qpmax=69 / qpstep=4 / cplxblur=20.0 / qblur=0.5 / ip_ratio=1.40 / pb_ratio=1.30 / aq=2:1.00
Default : Да
Forced : Нет
Цветовой диапазон : Limited
Основные цвета : BT.709
Характеристики трансфера : BT.709
Коэффициенты матрицы : BT.709

Аудио
Идентификатор : 2
Формат : AC-3
Формат/Информация : Audio Coding 3
Коммерческое название : Dolby Digital
Идентификатор кодека : A_AC3
Продолжительность : 1 ч. 30 м.
Вид битрейта : Постоянный
Битрейт : 192 Кбит/сек
Каналы : 2 канала
ChannelLayout : L R
Частота : 48,0 КГц
Частота кадров : 31,250 кадров/сек (1536 SPF)
Битовая глубина : 16 бит
Метод сжатия : С потерями
Размер потока : 124 Мбайт (11%)
ServiceKind/String : Complete Main
Default : Да
Forced : Нет

pb.wtf



Скачать Святая ложь через торрент http://a.radikal.ru/a01/1909/5b/08bd7e8940b9.jpg Скачать фильм Святая ложь через торрент бесплантно в хорошем качестве Описание: На какие жертвы можно пойти ради любимого человека? И возможно ли пережить предательство того, кто еще вчера был так близок?.. ... 10 10 3
Торрент: Зарегистрирован [2019-09-01 13:27] · скачан: 31 раз
Статус: √ проверено
Размер: 2.27 GB
Как cкачать? Как скачать Святая ложь через торрент | qTorrent

% Раздел Тема Автор DL S | L
Наши сериалы [ 5.27 GB ] Святая ложь / Серии: 1-2 из 2 [2019 Мело HDTVRip 720p] bober100 Скачать
1 | 0

28-11-2019 20:33  

Отключить всю рекламу на сайте

    Дорогой пользователь! Огромная просьба, поблагодарите релизера, оцените раздачу и оставьте свои комментарий, если Вы скачали Святая ложь через торрент бесплатно! Внесите свою лепту в развитие PiratBit!
    Комментировать посты могут только пользователи прошедшие не сложную регистрацию
    Показать сообщения:    

    Святая ложь через торрент
    Скачать бесплатно Святая ложь
    Святая ложь скачать торрент
    Святая ложь смотреть онлайн
    Cкачать фильм Святая ложь бесплатно
    Святая ложь скачать торрент в хорошем качестве
    Святая ложь смотреть онлайн бесплатно в хорошем качестве


    Вы не можете начинать темы
    Вы не можете отвечать на сообщения
    Вы не можете редактировать свои сообщения
    Вы не можете удалять свои сообщения
    Вы не можете голосовать в опросах
    Вы не можете прикреплять файлы к сообщениям
    Вы можете скачивать файлы