Доктор Стрэндж

Лицензия

Добыча

Дубляж

Дом дракона

1 сезон

Тор

Дубляж

В эфире

Дубляж

Там, где раки поют

MVO

Властелин колец

1 сезон

Deluxe

pack

Рекомендуем

30

Пиратка

ВАЖНО

ВАЖНО

Ghostwire

Пиратка

jed

RePack

nioh2

RePack

RDR2

RePack

NEED FOR SPEED™ PAYBACK

RePack

скачать торрент

Кинопоиск HD

Острые козырьки 6 сезон

6 сезон

FAR CRY 6

RePack

скачать торрент

Лицензия

скачать торрент

MVO

1

1 сезон

скачать торрент

1 сезон

скачать торрент

Лицензия

  

Святая ложь / Серии: 1-2 из 2 (Андрей Селиванов) [2019, Мелодрама, HDTVRip 720p]

Святая ложь через торрент pb.wtf

Размер: 5.27 GB | Добавлен: 3 года 3 мес. назад | Торрент скачан:18 раз
Смотреть онлайн | Скачать   

01-09-2019 13:27 Святая ложь Скачать торрент  

Святая ложь
Год выпуска: 2019
Страна: Россия
Жанр: Мелодрама
Продолжительность: ~ 01:30:00 серия
Субтитры: отсутствуют

Режиссер: Андрей Селиванов



В ролях: Елена Шилова, Дмитрий Миллер, Илья Акинтьев, Марина Коняшкина, Людмила Чиркова, Анастасия Шаповал

Описание: На какие жертвы можно пойти ради любимого человека? И возможно ли пережить предательство того, кто еще вчера был так близок?.. Светлана и Дмитрий влюблены и собираются пожениться. Но счастливым мечтам, увы, не суждено сбыться. Незадолго до свадьбы на влюбленных нападают уличные хулиганы, и эта встреча оборачивается настоящей трагедией. В драке Дмитрий убивает одного из бандитов. Светлана решает во что бы то ни стало спасти любимого – она берет вину на себя, и сама попадает за решетку. Впереди женщину ждут тяготы и страшное предательство, а, главное, неожиданное появление таинственного дара – видеть будущее. С этого момента жизнь Светланы резко изменится, но вот в какую сторону – большой вопрос…

Качество: HDTVRip 720p
Формат: MKV

Видео: 1280х720 (16:9), 25 fps, AVC MPEG-4 (x264), [email protected] ~ 4000 kbps, 0.152 bit/pixel
Аудио: 48 kHz, АС3, 2/0 (L,R), ~192.00 kbps avg
скриншот  скриншот  скриншот  скриншот  

Общее
Уникальный идентификатор : 200994460596384622980565038065310139474 (0x97362002166AD10EABA83E1CC2F28452)
Полное имя : C:\Svyataya.lozh.2019.HDTVRip.(720p).ExKinoRay\Svyataya.lozh.(01.seriya.iz.02).2019.HDTVRip.(720p).ExKinoRay.mkv
Формат : Matroska
Версия формата : Version 4
Размер файла : 2,62 Гбайт
Продолжительность : 1 ч. 29 м.
Общий поток : 4194 Кбит/сек
Дата кодирования : UTC 2019-08-31 21:32:09
Программа кодирования : mkvmerge v6.9.1 (''Blue Panther'') 64bit built on Apr 18 2014 18:23:38
Библиотека кодирования : libebml v1.3.0 + libmatroska v1.4.1

Видео
Идентификатор : 1
Формат : AVC
Формат/Информация : Advanced Video Codec
Профиль формата : [email protected]
Настройки формата : CABAC / 9 Ref Frames
Параметр CABAC формата : Да
Параметр RefFrames формата : 9 кадров
Идентификатор кодека : V_MPEG4/ISO/AVC
Продолжительность : 1 ч. 29 м.
Битрейт : 4000 Кбит/сек
Ширина : 1280 пикселей
Высота : 720 пикселей
Соотношение сторон : 16:9
Режим частоты кадров : Постоянный
Частота кадров : 25,000 кадров/сек
Цветовое пространство : YUV
Субдискретизация насыщенности : 4:2:0
Битовая глубина : 8 бит
Тип развёртки : Прогрессивная
Бит/(Пиксели*Кадры) : 0.174
Размер потока : 2,45 Гбайт (93%)
Библиотека кодирования : x264 core 146 r2538 121396c
Настройки программы : cabac=1 / ref=9 / deblock=1:-3:-3 / analyse=0x3:0x113 / me=umh / subme=11 / psy=1 / psy_rd=1.00:0.20 / mixed_ref=1 / me_range=32 / chroma_me=1 / trellis=2 / 8x8dct=1 / cqm=0 / deadzone=21,11 / fast_pskip=1 / chroma_qp_offset=-3 / threads=24 / lookahead_threads=10 / sliced_threads=0 / nr=0 / decimate=0 / interlaced=0 / bluray_compat=0 / constrained_intra=0 / bframes=11 / b_pyramid=2 / b_adapt=2 / b_bias=0 / direct=3 / weightb=1 / open_gop=0 / weightp=2 / keyint=250 / keyint_min=25 / scenecut=40 / intra_refresh=0 / rc_lookahead=60 / rc=2pass / mbtree=1 / bitrate=4000 / ratetol=1.0 / qcomp=0.60 / qpmin=0 / qpmax=69 / qpstep=4 / cplxblur=20.0 / qblur=0.5 / vbv_maxrate=14000 / vbv_bufsize=14000 / nal_hrd=none / filler=0 / ip_ratio=1.40 / aq=3:1.40
Default : Нет
Forced : Нет
Цветовой диапазон : Limited
Основные цвета : BT.709
Характеристики трансфера : BT.709
Коэффициенты матрицы : BT.709

Аудио
Идентификатор : 2
Формат : AC-3
Формат/Информация : Audio Coding 3
Коммерческое название : Dolby Digital
Идентификатор кодека : A_AC3
Продолжительность : 1 ч. 29 м.
Вид битрейта : Постоянный
Битрейт : 192 Кбит/сек
Каналы : 2 канала
ChannelLayout : L R
Частота : 48,0 КГц
Частота кадров : 31,250 кадров/сек (1536 SPF)
Битовая глубина : 16 бит
Метод сжатия : С потерями
Размер потока : 123 Мбайт (5%)
Язык : Russian
ServiceKind/String : Complete Main
Default : Да
Forced : Да
Показать скриншоты




Скачать Святая ложь через торрент https://img15.lostpic.net/2019/09/01/e0ada613882565389a098e6af59223c1.th.jpg Скачать, смотреть онлайн Святая ложь бесплантно в хорошем качестве Описание: На какие жертвы можно пойти ради любимого человека? И возможно ли пережить предательство того, кто еще вчера был так близок?.. ... 10 10 2
Торрент: Зарегистрирован [2019-09-01 13:27] · скачан: 18 раз
Статус: √ проверено
Размер: 5.27 GB
Как cкачать? Как скачать Святая ложь через торрент | UTorrent

% Раздел Тема Автор DL S | L
Наши сериалы [ 2.27 GB ] Святая ложь / Серии: 1-2 из 2 | | DLRip-AVC bober100 Скачать
1 | 0
Наши сериалы [ 2.49 GB ] Святая ложь / Серии: 1-4 из 4 | | SATRip bober100 Скачать
1 | 0

28-11-2019 20:33  


Отключить вcю реклaмy на сайте, в т.ч. и в плеере онлайн просмотра!

    Дорогой пользователь! Огромная просьба, поблагодарите релизера, оцените раздачу и оставьте свои комментарий, если Вы скачали Святая ложь через торрент бесплатно!!
    Комментировать посты могут только пользователи прошедшие не сложную регистрацию
    Показать сообщения:    


    Святая ложь через торрент
    Скачать бесплатно Святая ложь
    Святая ложь скачать торрент
    Святая ложь смотреть онлайн
    Cкачать фильм Святая ложь бесплатно
    Святая ложь скачать торрент в хорошем качестве
    Святая ложь смотреть онлайн бесплатно в хорошем качестве
    Вы не можете начинать темы
    Вы не можете отвечать на сообщения
    Вы не можете редактировать свои сообщения
    Вы не можете удалять свои сообщения
    Вы не можете голосовать в опросах
    Вы не можете прикреплять файлы к сообщениям
    Вы можете скачивать файлы
    Святая ложь / Серии: 1-2 из 2 [2019, Мелодрама, HDTVRip 720p] смотреть онлайн, скачать торрент picoco.icu