новый адрес
Ссылка на приватное зеркало всего за 1$. Внимание количество ограничено!!!

iTunes

1+1

iTunes

мы

WEB-DL

1

iTunes

Чернобыль

iTunes

Ральф против интернета

Лицензия

ПШазам

Лицензия

Оно 2

Лицензия

30
pack

Вам бонус

ВАЖНО

!!Акция!!

Alien_RageХит недели

RePack

Resident Evil 21

ИГРА 18+

pack

RePack

jed

!!Акция!!

Alien_Rage

RePack

fifa19

RePack

Assassins Creed: Odyssey

RePack

NEED FOR SPEED™ PAYBACK

3 сезон

9 сезон

Бесстыжие 9 сезон

Все сериалы

все сериалы на PB.wtf

RePack

FAR CRY 5
Ребята, катастрофически не хватает 1900р. для оплаты серверов за Октябрь (всвязи с блокировками трафик упал в 3 раза), 1-2р., выручайте.
  

Люди Икс: Тёмный Феникс / Dark Phoenix (Саймон Кинберг) [2019, фантастика, боевик, приключения, HDRip-AVC] [Dub] pb.wtf

Люди Икс: Тёмный Феникс через торрент pb.wtf

Раздают: 20 [ 2 KB/s ]
Размер: 1.44 GB | Добавлен: 3 мес. 8 д. назад | Торрент скачан:211 раз
Скачать  

01-09-2019 15:37 Люди Икс: Тёмный Феникс Скачать торрент  

Люди Икс: Тёмный Феникс
Dark Phoenix

«A Phoenix will rise. The X-Men will fall»

Страна: США
Жанр: фантастика, боевик, приключения
Год выпуска: 2019
Продолжительность: 01:53:56

Перевод: Профессиональный (полное дублирование) [Blu-ray EUR]
Субтитры: русские (форсированные)
Оригинальная аудиодорожка: нет

Режиссер: Саймон Кинберг / Simon Kinberg

В ролях: Джеймс МакЭвой, Майкл Фассбендер, Дженнифер Лоуренс, Николас Холт, Софи Тёрнер, Тай Шеридан, Александра Шипп, Эван Питерс, Коди Смит-Макфи, Джессика Честейн

Описание: История Джин Грей, которая разворачивается в тот момент, когда героиня превращается в культового Тёмного Феникса. Во время опасной для жизни спасательной миссии в космосе девушка оказывается поражена таинственной космической силой, которая превращает её в одного из самых могущественных мутантов. В борьбе с этой всё более изменчивой мощью и со своими собственными демонами Джин выходит из-под контроля: раскалывает семью Людей Икс и угрожает уничтожить всю нашу планету.



Автор рипа: stalkerok

Сэмпл

Качество видео: HDRip-AVC | Исходник: Dark.Phoenix.2019.BluRay.1080p.DTS-HDMA7.1.x264-CHD
Формат видео: MKV
Видео кодек: AVC
Аудио кодек: AAC
Видео: AVC, 1553 Кбит/сек, 1046x438 (2.40:1), 23,976 кадр/сек
Аудио: AAC, 256 Кбит/сек, 48 КГц, 5.1 - русский
Навигация по главам: есть
---[Information] [01.09.2019 17:36:41] x264 [info]: frame I:1278 Avg QP:16.39 size: 46606
---[Information] [01.09.2019 17:36:41] x264 [info]: frame P:37804 Avg QP:18.68 size: 16150
---[Information] [01.09.2019 17:36:41] x264 [info]: frame B:124828 Avg QP:20.59 size: 5267

General
Unique ID : 128926393479672022710545227245710419065 (0x60FE51F779DFC6E444D2A312E7872479)
Complete name : C:\temp\Dark Phoenix\Dark.Phoenix.2019.HDRip.x264.Rus.stalkerok.New-Team.mkv
Format : Matroska
Format version : Version 4
File size : 1.44 GiB
Duration : 1 h 53 min
Overall bit rate : 1 811 kb/s
Movie name : Dark Phoenix (2019) | Rip by stalkerok
Encoded date : UTC 2019-09-01 15:20:22
Writing application : mkvmerge v33.1.0 ('Primrose') 64-bit
Writing library : libebml v1.3.7 + libmatroska v1.5.0

Video
ID : 1
Format : AVC
Format/Info : Advanced Video Codec
Format profile : High@L4.1
Format settings : CABAC / 12 Ref Frames
Format settings, CABAC : Yes
Format settings, Reference frames : 12 frames
Codec ID : V_MPEG4/ISO/AVC
Duration : 1 h 53 min
Bit rate : 1 554 kb/s
Width : 1 046 pixels
Height : 438 pixels
Display aspect ratio : 2.40:1
Frame rate mode : Constant
Frame rate : 23.976 (24000/1001) FPS
Color space : YUV
Chroma subsampling : 4:2:0
Bit depth : 8 bits
Scan type : Progressive
Bits/(Pixel*Frame) : 0.141
Stream size : 1.24 GiB (86%)
Title : Dark Phoenix (2019) | Rip by stalkerok
Writing library : x264 core 158 r2984+49 6932f4a t_mod_New [0-bit@all X86_64]
Encoding settings : cabac=1 / ref=12 / deblock=1:-3:-2 / analyse=0x3:0x133 / me=umh / subme=11 / psy=1 / fade_compensate=0.00 / psy_rd=1.00:0.00 / mixed_ref=1 / me_range=32 / chroma_me=1 / trellis=2 / 8x8dct=1 / cqm=0 / deadzone=21,11 / fast_pskip=0 / chroma_qp_offset=-2 / threads=12 / lookahead_threads=3 / sliced_threads=0 / nr=0 / decimate=1 / interlaced=0 / bluray_compat=0 / constrained_intra=0 / fgo=0 / bframes=14 / b_pyramid=2 / b_adapt=2 / b_bias=0 / direct=3 / weightb=1 / open_gop=0 / weightp=2 / keyint=240 / keyint_min=23 / scenecut=40 / intra_refresh=0 / rc_lookahead=60 / rc=crf / mbtree=0 / crf=18.8000 / qcomp=0.65 / qpmin=0:0:0 / qpmax=69:69:69 / qpstep=4 / vbv_maxrate=50000 / vbv_bufsize=62500 / crf_max=0.0 / nal_hrd=none / filler=0 / ip_ratio=1.40 / pb_ratio=1.30 / aq=3:0.80 / aq-sensitivity=10.00 / aq-factor=1.00:1.00:1.00 / aq2=0 / aq3=0 / zones=150989,163909,q=34
Default : Yes
Forced : No

Audio
ID : 2
Format : AAC LC
Format/Info : Advanced Audio Codec Low Complexity
Codec ID : A_AAC-2
Duration : 1 h 53 min
Bit rate : 256 kb/s
Channel(s) : 6 channels
Channel layout : C L R Ls Rs LFE
Sampling rate : 48.0 kHz
Frame rate : 46.875 FPS (1024 SPF)
Compression mode : Lossy
Delay relative to video : 9 ms
Stream size : 208 MiB (14%)
Title : Dub
Language : Russian
Default : Yes
Forced : No

Text
ID : 3
Format : UTF-8
Codec ID : S_TEXT/UTF8
Codec ID/Info : UTF-8 Plain Text
Duration : 1 h 34 min
Bit rate : 0 b/s
Count of elements : 2
Stream size : 108 Bytes (0%)
Title : Forced
Language : Russian
Default : Yes
Forced : No

Menu
00:00:00.000 : :Chapter 01
00:03:28.875 : :Chapter 02
00:07:34.620 : :Chapter 03
00:11:42.201 : :Chapter 04
00:15:44.109 : :Chapter 05
00:18:37.407 : :Chapter 06
00:25:24.481 : :Chapter 07
00:31:40.356 : :Chapter 08
00:34:19.307 : :Chapter 09
00:40:07.446 : :Chapter 10
00:44:36.090 : :Chapter 11
00:49:07.778 : :Chapter 12
00:55:38.168 : :Chapter 13
00:58:57.408 : :Chapter 14
01:02:57.190 : :Chapter 15
01:10:40.110 : :Chapter 16
01:13:42.418 : :Chapter 17
01:19:33.477 : :Chapter 18
01:22:35.700 : :Chapter 19
01:25:49.060 : :Chapter 20
01:30:38.349 : :Chapter 21
01:32:48.187 : :Chapter 22
01:37:59.623 : :Chapter 23
01:45:01.044 : :Chapter 24
pb.wtf



Скачать Люди Икс: Тёмный Феникс через торрент http://i6.imageban.ru/out/2017/09/18/2ff75c0c358795c5946784cc1680714d.png Скачать фильм Люди Икс: Тёмный Феникс через торрент бесплантно в хорошем качестве Описание: История Джин Грей, которая разворачивается в тот момент, когда героиня превращается в культового Тёмного Феникса. Во время ... 10 10 8
Info! Золотая раздача, скачанное не засчитывается.
Торрент: Зарегистрирован [2019-09-01 15:37] · скачан: 211 раз
Статус: √ проверено
Размер: 1.44 GB
Как cкачать? Как скачать Люди Икс: Тёмный Феникс через торрент | qTorrent

% Раздел Тема Автор DL S | L
Фильмы [HD 720p, 1080p] (Хороший звук DUB, MVO) [ 4.31 GB ] Люди Икс: Тёмный Феникс / Dark Phoenix [2019 BDRip 720p] - ExKinoRay Enigma2010 Скачать
55 | 0
Фильмы 2019 [DVDrip, WEB-DLRip, HDrip] (DUB, MVO) [ 1.46 GB ] Люди Икс: Тёмный Феникс / Dark Phoenix [2019 BDRip] - [] Twi7ter Скачать
66 | 4
Фильмы [HD 720p, 1080p] (Хороший звук DUB, MVO) [ 13.16 GB ] Люди Икс: Тёмный Феникс / Dark Phoenix [2019 BDRip 1080p] DUB [] bober100 Скачать
10 | 0
Фильмы 2019 [DVDrip, WEB-DLRip, HDrip] (DUB, MVO) [ 2.18 GB ] Люди Икс: Тёмный Феникс / Dark Phoenix [2019 BDRip] - [] Twi7ter Скачать
54 | 1
Фильмы 2019 [DVDrip, WEB-DLRip, HDrip] (DUB, MVO) [ 746 MB ] Люди Икс: Тёмный Феникс / Dark Phoenix [2019 HDRip] DUB [] surikmas Скачать
1 | 0
Фильмы 2019 [DVDrip, WEB-DLRip, HDrip] (DUB, MVO) [ 754 MB ] Люди Икс: Тёмный Феникс / Dark Phoenix [2019 BDRip] DUB [] bober100 Скачать
7 | 0
Ultra HD (UHD: 2K, 4K, 8K) — видео сверхвысокой чёткости [ 23.7 GB ] Люди Икс: Тёмный Феникс / Dark Phoenix [2019 UHD BDRip 2160p] [SDR] DUB [] sheker187 Скачать
1 | 0

28-11-2019 20:33  

Отключить всю рекламу на сайте

    Дорогой пользователь! Огромная просьба, поблагодарите релизера, оцените раздачу и оставьте свои комментарий, если Вы скачали Люди Икс: Тёмный Феникс через торрент бесплатно! Внесите свою лепту в развитие PiratBit!
    Комментировать посты могут только пользователи прошедшие не сложную регистрацию
    Показать сообщения:    

    Люди Икс: Тёмный Феникс через торрент
    Скачать бесплатно Люди Икс: Тёмный Феникс
    Люди Икс: Тёмный Феникс скачать торрент
    Люди Икс: Тёмный Феникс смотреть онлайн
    Cкачать фильм Люди Икс: Тёмный Феникс бесплатно
    Люди Икс: Тёмный Феникс скачать торрент в хорошем качестве
    Люди Икс: Тёмный Феникс смотреть онлайн бесплатно в хорошем качестве


    Вы не можете начинать темы
    Вы не можете отвечать на сообщения
    Вы не можете редактировать свои сообщения
    Вы не можете удалять свои сообщения
    Вы не можете голосовать в опросах
    Вы не можете прикреплять файлы к сообщениям
    Вы можете скачивать файлы