Ссылка на приватное зеркало всего за 1$. Внимание количество ограничено!!!

iTunes

iTunes

iTunes

1

iTunes

iTunes

iTunes

iTunes

iTunes

30
pack

$ от Little Big

ВАЖНО

!!Акция!!

Alien_RageХит недели

RePack

Resident Evil 21

ИГРА 18+

pack

RePack

jed

!!Акция!!

Alien_Rage

RePack

fifa19

RePack

Assassins Creed: Odyssey

RePack

NEED FOR SPEED™ PAYBACK

4 сезон

9 сезон

Бесстыжие 9 сезон

Все сериалы

все сериалы на PB.wtf

RePack

FAR CRY 5
  

Мелкая / Little (Тина Гордон Чизм) [2019, Фэнтези, мелодрама, комедия, BDRip] DUB [iTunes] pb.wtf

Мелкая через торрент pb.wtf

Размер: 1.45 GB | Добавлен: 9 мес. назад | Торрент скачан:178 раз
Скачать  

01-09-2019 19:42 Мелкая Скачать торрент  

Мелкая / Little
Год выпуска: 2019
Страна: США
Жанр: Фэнтези, мелодрама, комедия
Продолжительность: 01:48:47
Перевод: Дублированный | iTunes
Субтитры: русские (форс. вшитые)

Режиссер: Тина Гордон Чизм

rating

В ролях: Реджина Холл, Исса Рэй, Марсаи Мартин, Джастин Хартли, Трэйси Эллис Росс, Тони Белл, Мики Дэй, Джейдон Маккрэри, Такер Мик, Талия Тран и др.

Описание: Главная героиня, властный босс компании, однажды просыпается ребенком. Начинаются веселье и шутки, поскольку героине надо провернуть важную сделку.

Качество: BDRip
Формат: AVI

Видео: Xvid 73, 704x384, ~1518 kbps, 23,976 fps
Аудио: русский, AC3, 5.1 ch, 48 kHz, 384 kbps | iTunes
скриншот  скриншот  скриншот  скриншот  скриншот  

Общее
Полное имя : G:Torrent2MelkayaBDRip.avi
Формат : AVI
Формат/Информация : Audio Video Interleave
Профиль формата : OpenDML
Размер файла : 1,45 Гбайт
Продолжительность : 1 ч. 48 м.
Общий поток : 1914 Кбит/сек
Программа кодирования : XviD4PSP 6.0 / 53.6.0

Видео
Идентификатор : 0
Формат : MPEG-4 Visual
Профиль формата : Advanced Simple@L5
Настройки формата : BVOP1 / Custom Matrix
Параметр BVOP формата : 1
Параметр QPel формата : Нет
Параметр GMC формата : Без точки перехода
Параметр матрицы формата : Выборочная
Идентификатор кодека : XVID
Идентификатор кодека/Подсказка : XviD
Продолжительность : 1 ч. 48 м.
Битрейт : 1518 Кбит/сек
Ширина : 704 пикселя
Высота : 384 пикселя
Соотношение сторон : 1,85:1
Частота кадров : 23,976 (23976/1000) кадра/сек
Цветовое пространство : YUV
Субдискретизация насыщенности : 4:2:0
Битовая глубина : 8 бит
Тип развёртки : Прогрессивная
Метод сжатия : С потерями
Бит/(Пиксели*Кадры) : 0.234
Размер потока : 1,15 Гбайт (79%)
Библиотека кодирования : XviD 73

Аудио
Идентификатор : 1
Формат : AC-3
Формат/Информация : Audio Coding 3
Параметр Endianness формата : Big
Идентификатор кодека : 2000
Продолжительность : 1 ч. 48 м.
Вид битрейта : Постоянный
Битрейт : 384 Кбит/сек
Каналы : 6 каналов
Расположение каналов : Front: L C R, Side: L R, LFE
Частота : 48,0 КГц
Частота кадров : 31,250 кадров/сек (1536 SPF)
Битовая глубина : 16 бит
Метод сжатия : С потерями
Размер потока : 299 Мбайт (20%)
Выравнивание : Соединение по промежуткам
Продолжительность промежутка : 32 мс. (0,77 видеокадр)

pb.wtf



Скачать Мелкая через торрент http://lostpix.com/thumbs/2019-08/31/sn5630m8maw0ji8dap4vzwbz4.png Скачать фильм Мелкая через торрент бесплантно в хорошем качестве Описание: Главная героиня, властный босс компании, однажды просыпается ребенком. Начинаются веселье и шутки, поскольку героине надо ... 10 10 5
Торрент: Зарегистрирован [2019-09-01 19:42] · скачан: 178 раз
Статус: √ проверено
Размер: 1.45 GB
Как cкачать? Как скачать Мелкая через торрент | qTorrent

% Раздел Тема Автор DL S | L
Фильмы (WEB-DL 720p, 1080p) [ 5.57 GB ] Миллион мелких осколков / A Million Little Pieces [2018 WEB-DL 1080p] bober100 Скачать
3 | 0
Фильмы 2018 [DVDrip, WEB-DLRip, HDrip] (DUB, MVO) [ 2.04 GB ] Миллион мелких осколков / A Million Little Pieces [2018 WEB-DLRip] bober100 Скачать
1 | 0
Фильмы (WEB-DL 720p, 1080p) [ 3.38 GB ] Миллион мелких осколков / A Million Little Pieces [2018 WEB-DL 720p] bober100 Скачать
3 | 0
Фильмы 2018 [DVDrip, WEB-DLRip, HDrip] (DUB, MVO) [ 1.46 GB ] Миллион мелких осколков / A Million Little Pieces [2018 WEB-DLRip] killermax2013 Скачать
3 | 0
Фильмы 2019-2020 [DVDrip, WEB-DLRip, HDrip] (DUB, MVO) [ 2.18 GB ] Мелкая / Little [2019 BDRip-AVC] bober100 Скачать
1 | 0
Фильмы [HD 720p, 1080p] (Хороший звук DUB, MVO) [ 4.34 GB ] Мелкая / Little [2019 BDRip 720p] bober100 Скачать
1 | 0
Фильмы [HD 720p, 1080p] (Хороший звук DUB, MVO) [ 7.63 GB ] Мелкая / Little [2019 BDRip 1080p] bober100 Скачать
2 | 0

28-11-2019 20:33  

Отключить всю рекламу на сайте

01-09-2019 20:40 Мелкая Скачать торрент  

Божечки! Одни нигеры! Что за расизм?!pb.wtf



    Дорогой пользователь! Огромная просьба, поблагодарите релизера, оцените раздачу и оставьте свои комментарий, если Вы скачали Мелкая через торрент бесплатно! Внесите свою лепту в развитие PiratBit!
    Комментировать посты могут только пользователи прошедшие не сложную регистрацию
    Показать сообщения:    

    Мелкая через торрент
    Скачать бесплатно Мелкая
    Мелкая скачать торрент
    Мелкая смотреть онлайн
    Cкачать фильм Мелкая бесплатно
    Мелкая скачать торрент в хорошем качестве
    Мелкая смотреть онлайн бесплатно в хорошем качестве


    Вы не можете начинать темы
    Вы не можете отвечать на сообщения
    Вы не можете редактировать свои сообщения
    Вы не можете удалять свои сообщения
    Вы не можете голосовать в опросах
    Вы не можете прикреплять файлы к сообщениям
    Вы можете скачивать файлы