новый адрес
Ссылка на приватное зеркало всего за 1$. Внимание количество ограничено!!!

iTunes

1+1

iTunes

мы

WEB-DL

1

iTunes

Чернобыль

iTunes

Ральф против интернета

Лицензия

ПШазам

Лицензия

Оно 2

Лицензия

30
pack

Вам бонус

ВАЖНО

!!Акция!!

Alien_RageХит недели

RePack

Resident Evil 21

ИГРА 18+

pack

RePack

jed

!!Акция!!

Alien_Rage

RePack

fifa19

RePack

Assassins Creed: Odyssey

RePack

NEED FOR SPEED™ PAYBACK

3 сезон

9 сезон

Бесстыжие 9 сезон

Все сериалы

все сериалы на PB.wtf

RePack

FAR CRY 5
Ребята, катастрофически не хватает 1900р. для оплаты серверов за Октябрь (всвязи с блокировками трафик упал в 3 раза), 1-2р., выручайте.
  

Люди Икс: Тёмный Феникс / Dark Phoenix (Саймон Кинберг) [2019, фантастика, боевик, приключения, BDRip-AVC] [Dub] pb.wtf

Люди Икс: Тёмный Феникс через торрент pb.wtf

Раздают: 111 [ 236 KB/s ] Качают: 3 [ 116 KB/s ]
Размер: 2.19 GB | Добавлен: 3 мес. 11 д. назад | Торрент скачан:355 раз
Скачать  

01-09-2019 20:39 Люди Икс: Тёмный Феникс Скачать торрент  

Люди Икс: Тёмный Феникс
Dark Phoenix

«A Phoenix will rise. The X-Men will fall»

Страна: США
Жанр: фантастика, боевик, приключения
Год выпуска: 2019
Продолжительность: 01:53:56

Перевод: Профессиональный (полное дублирование) [Blu-ray EUR]
Субтитры: русские (форсированные, полные), английские (полные, SDH)
Оригинальная аудиодорожка: английский

Режиссер: Саймон Кинберг / Simon Kinberg

В ролях: Джеймс МакЭвой, Майкл Фассбендер, Дженнифер Лоуренс, Николас Холт, Софи Тёрнер, Тай Шеридан, Александра Шипп, Эван Питерс, Коди Смит-Макфи, Джессика Честейн

Описание: История Джин Грей, которая разворачивается в тот момент, когда героиня превращается в культового Тёмного Феникса. Во время опасной для жизни спасательной миссии в космосе девушка оказывается поражена таинственной космической силой, которая превращает её в одного из самых могущественных мутантов. В борьбе с этой всё более изменчивой мощью и со своими собственными демонами Джин выходит из-под контроля: раскалывает семью Людей Икс и угрожает уничтожить всю нашу планету.



Релиз:

Автор рипа: stalkerok

Сэмпл

Качество видео: BDRip-AVC | Исходник: Dark Phoenix (2019) Blu-ray Disc [EUR] -BLUEBIRD
Формат видео: MKV
Видео кодек: AVC
Аудио кодек: AC3
Видео: AVC, 1919 Кбит/сек, 1152x482 (2.40:1), 23,976 кадр/сек
Аудио №1: AC3, 448 Кбит/сек, 48 КГц, 5.1 - русский
Аудио №2: AC3, 384 Кбит/сек, 48 КГц, 5.1 - английский
Навигация по главам: есть
---[Information] [01.09.2019 23:26:46] x264 [info]: frame I:1254 Avg QP:16.08 size: 57037
---[Information] [01.09.2019 23:26:46] x264 [info]: frame P:36538 Avg QP:18.00 size: 20373
---[Information] [01.09.2019 23:26:46] x264 [info]: frame B:126118 Avg QP:20.25 size: 6539

General
Unique ID : 299968601336717326439987998587379725001 (0xE1ABD9E636BCCB5669B48175409732C9)
Complete name : C:\temp\Dark Phoenix\Dark.Phoenix.2019.BDRip.x264.Rus.Eng.stalkerok.New-Team.mkv
Format : Matroska
Format version : Version 4
File size : 2.19 GiB
Duration : 1 h 53 min
Overall bit rate : 2 754 kb/s
Movie name : Dark Phoenix (2019) | Rip by stalkerok
Encoded date : UTC 2019-09-01 20:27:10
Writing application : mkvmerge v33.1.0 ('Primrose') 64-bit
Writing library : libebml v1.3.7 + libmatroska v1.5.0

Video
ID : 1
Format : AVC
Format/Info : Advanced Video Codec
Format profile : High@L4.1
Format settings : CABAC / 12 Ref Frames
Format settings, CABAC : Yes
Format settings, Reference frames : 12 frames
Codec ID : V_MPEG4/ISO/AVC
Duration : 1 h 53 min
Bit rate : 1 920 kb/s
Width : 1 152 pixels
Height : 482 pixels
Display aspect ratio : 2.40:1
Frame rate mode : Constant
Frame rate : 23.976 (24000/1001) FPS
Color space : YUV
Chroma subsampling : 4:2:0
Bit depth : 8 bits
Scan type : Progressive
Bits/(Pixel*Frame) : 0.144
Stream size : 1.53 GiB (70%)
Title : Dark Phoenix (2019) | Rip by stalkerok
Writing library : x264 core 158 r2984+49 6932f4a t_mod_New [0-bit@all X86_64]
Encoding settings : cabac=1 / ref=12 / deblock=1:-3:-2 / analyse=0x3:0x133 / me=umh / subme=11 / psy=1 / fade_compensate=0.00 / psy_rd=1.00:0.00 / mixed_ref=1 / me_range=32 / chroma_me=1 / trellis=2 / 8x8dct=1 / cqm=0 / deadzone=21,11 / fast_pskip=0 / chroma_qp_offset=-2 / threads=12 / lookahead_threads=3 / sliced_threads=0 / nr=0 / decimate=1 / interlaced=0 / bluray_compat=0 / constrained_intra=0 / fgo=0 / bframes=14 / b_pyramid=2 / b_adapt=2 / b_bias=0 / direct=3 / weightb=1 / open_gop=0 / weightp=2 / keyint=240 / keyint_min=23 / scenecut=40 / intra_refresh=0 / rc_lookahead=60 / rc=crf / mbtree=0 / crf=18.6000 / qcomp=0.65 / qpmin=0:0:0 / qpmax=69:69:69 / qpstep=4 / vbv_maxrate=50000 / vbv_bufsize=62500 / crf_max=0.0 / nal_hrd=none / filler=0 / ip_ratio=1.40 / pb_ratio=1.30 / aq=3:0.80 / aq-sensitivity=10.00 / aq-factor=1.00:1.00:1.00 / aq2=0 / aq3=0 / zones=150989,163909,q=32
Default : Yes
Forced : No

Audio #1
ID : 2
Format : AC-3
Format/Info : Audio Coding 3
Commercial name : Dolby Digital
Codec ID : A_AC3
Duration : 1 h 53 min
Bit rate mode : Constant
Bit rate : 448 kb/s
Channel(s) : 6 channels
Channel layout : L R C LFE Ls Rs
Sampling rate : 48.0 kHz
Frame rate : 31.250 FPS (1536 SPF)
Bit depth : 16 bits
Compression mode : Lossy
Stream size : 365 MiB (16%)
Title : Dub
Language : Russian
Service kind : Complete Main
Default : Yes
Forced : No

Audio #2
ID : 3
Format : AC-3
Format/Info : Audio Coding 3
Commercial name : Dolby Digital
Codec ID : A_AC3
Duration : 1 h 53 min
Bit rate mode : Constant
Bit rate : 384 kb/s
Channel(s) : 6 channels
Channel layout : L R C LFE Ls Rs
Sampling rate : 48.0 kHz
Frame rate : 31.250 FPS (1536 SPF)
Bit depth : 16 bits
Compression mode : Lossy
Stream size : 313 MiB (14%)
Language : English
Service kind : Complete Main
Default : No
Forced : No

Text #1
ID : 4
Format : UTF-8
Codec ID : S_TEXT/UTF8
Codec ID/Info : UTF-8 Plain Text
Duration : 1 h 41 min
Bit rate : 1 b/s
Count of elements : 21
Stream size : 1.01 KiB (0%)
Title : Forced
Language : Russian
Default : Yes
Forced : No

Text #2
ID : 5
Format : UTF-8
Codec ID : S_TEXT/UTF8
Codec ID/Info : UTF-8 Plain Text
Duration : 1 h 52 min
Bit rate : 63 b/s
Count of elements : 1137
Stream size : 52.9 KiB (0%)
Title : Full (Enigma)
Language : Russian
Default : No
Forced : No

Text #3
ID : 6
Format : UTF-8
Codec ID : S_TEXT/UTF8
Codec ID/Info : UTF-8 Plain Text
Duration : 1 h 43 min
Bit rate : 40 b/s
Count of elements : 1134
Stream size : 30.7 KiB (0%)
Language : English
Default : No
Forced : No

Text #4
ID : 7
Format : UTF-8
Codec ID : S_TEXT/UTF8
Codec ID/Info : UTF-8 Plain Text
Duration : 1 h 53 min
Bit rate : 43 b/s
Count of elements : 1414
Stream size : 36.4 KiB (0%)
Title : SDH
Language : English
Default : No
Forced : No

Menu
00:00:00.000 : :Chapter 01
00:03:28.875 : :Chapter 02
00:07:34.620 : :Chapter 03
00:11:42.201 : :Chapter 04
00:15:44.109 : :Chapter 05
00:18:37.407 : :Chapter 06
00:25:24.481 : :Chapter 07
00:31:40.356 : :Chapter 08
00:34:19.307 : :Chapter 09
00:40:07.446 : :Chapter 10
00:44:36.090 : :Chapter 11
00:49:07.778 : :Chapter 12
00:55:38.168 : :Chapter 13
00:58:57.408 : :Chapter 14
01:02:57.190 : :Chapter 15
01:10:40.110 : :Chapter 16
01:13:42.418 : :Chapter 17
01:19:33.477 : :Chapter 18
01:22:35.700 : :Chapter 19
01:25:49.060 : :Chapter 20
01:30:38.349 : :Chapter 21
01:32:48.187 : :Chapter 22
01:37:59.623 : :Chapter 23
01:45:01.044 : :Chapter 24
pb.wtf



Скачать Люди Икс: Тёмный Феникс через торрент http://i6.imageban.ru/out/2017/09/18/2ff75c0c358795c5946784cc1680714d.png Скачать фильм Люди Икс: Тёмный Феникс через торрент бесплантно в хорошем качестве Описание: История Джин Грей, которая разворачивается в тот момент, когда героиня превращается в культового Тёмного Феникса. Во время ... 10 10 14
Info! Золотая раздача, скачанное не засчитывается.
Торрент: Зарегистрирован [2019-09-01 20:39] · скачан: 355 раз
Статус: √ проверено
Размер: 2.19 GB
Как cкачать? Как скачать Люди Икс: Тёмный Феникс через торрент | qTorrent

% Раздел Тема Автор DL S | L
Фильмы [HD 720p, 1080p] (Хороший звук DUB, MVO) [ 4.31 GB ] Люди Икс: Тёмный Феникс / Dark Phoenix [2019 BDRip 720p] - ExKinoRay Enigma2010 Скачать
76 | 2
Фильмы 2019 [DVDrip, WEB-DLRip, HDrip] (DUB, MVO) [ 1.46 GB ] Люди Икс: Тёмный Феникс / Dark Phoenix [2019 BDRip] - [] Twi7ter Скачать
88 | 6
Фильмы [HD 720p, 1080p] (Хороший звук DUB, MVO) [ 13.16 GB ] Люди Икс: Тёмный Феникс / Dark Phoenix [2019 BDRip 1080p] DUB [] bober100 Скачать
23 | 0
Фильмы 2019 [DVDrip, WEB-DLRip, HDrip] (DUB, MVO) [ 2.18 GB ] Люди Икс: Тёмный Феникс / Dark Phoenix [2019 BDRip] - [] Twi7ter Скачать
75 | 3
Фильмы 2019 [DVDrip, WEB-DLRip, HDrip] (DUB, MVO) [ 746 MB ] Люди Икс: Тёмный Феникс / Dark Phoenix [2019 HDRip] DUB [] surikmas Скачать
5 | 0
Фильмы 2019 [DVDrip, WEB-DLRip, HDrip] (DUB, MVO) [ 754 MB ] Люди Икс: Тёмный Феникс / Dark Phoenix [2019 BDRip] DUB [] bober100 Скачать
4 | 0
Ultra HD (UHD: 2K, 4K, 8K) — видео сверхвысокой чёткости [ 23.7 GB ] Люди Икс: Тёмный Феникс / Dark Phoenix [2019 UHD BDRip 2160p] [SDR] DUB [] sheker187 Скачать
1 | 0

28-11-2019 20:33  

Отключить всю рекламу на сайте


    Дорогой пользователь! Огромная просьба, поблагодарите релизера, оцените раздачу и оставьте свои комментарий, если Вы скачали Люди Икс: Тёмный Феникс через торрент бесплатно! Внесите свою лепту в развитие PiratBit!
    Комментировать посты могут только пользователи прошедшие не сложную регистрацию
    Показать сообщения:    

    Люди Икс: Тёмный Феникс через торрент
    Скачать бесплатно Люди Икс: Тёмный Феникс
    Люди Икс: Тёмный Феникс скачать торрент
    Люди Икс: Тёмный Феникс смотреть онлайн
    Cкачать фильм Люди Икс: Тёмный Феникс бесплатно
    Люди Икс: Тёмный Феникс скачать торрент в хорошем качестве
    Люди Икс: Тёмный Феникс смотреть онлайн бесплатно в хорошем качестве


    Вы не можете начинать темы
    Вы не можете отвечать на сообщения
    Вы не можете редактировать свои сообщения
    Вы не можете удалять свои сообщения
    Вы не можете голосовать в опросах
    Вы не можете прикреплять файлы к сообщениям
    Вы можете скачивать файлы