новый адрес
Ссылка на приватное зеркало всего за 1$. Внимание количество ограничено!!!

iTunes

1+1

iTunes

мы

WEB-DL

1

iTunes

Чернобыль

iTunes

Ральф против интернета

Лицензия

ПШазам

Лицензия

Оно 2

Лицензия

30
pack

Вам бонус

ВАЖНО

!!Акция!!

Alien_RageХит недели

RePack

Resident Evil 21

ИГРА 18+

pack

RePack

jed

!!Акция!!

Alien_Rage

RePack

fifa19

RePack

Assassins Creed: Odyssey

RePack

NEED FOR SPEED™ PAYBACK

3 сезон

9 сезон

Бесстыжие 9 сезон

Все сериалы

все сериалы на PB.wtf

RePack

FAR CRY 5
Ребята, катастрофически не хватает 1900р. для оплаты серверов за Октябрь (всвязи с блокировками трафик упал в 3 раза), 1-2р., выручайте.
  

Мелкая / Little (Тина Гордон Чизм) [2019, Фэнтези, мелодрама, комедия, BDRip-AVC] DUB [iTunes] pb.wtf

Мелкая через торрент pb.wtf

Раздают: 2 [ 0 KB/s ]
Размер: 2.18 GB | Добавлен: 3 мес. 11 д. назад | Торрент скачан:151 раз
Скачать  

02-09-2019 02:04 Мелкая Скачать торрент  

Мелкая / Little«Вчера крутой босс, сегодня попадос»
Год выпуска: 2019
Страна: США
Жанр: Фэнтези, мелодрама, комедия
Продолжительность: 01:48:47
Перевод: Дублированный | iTunes
Субтитры: Русские (форс.), Английские (полные, SDH)

Режиссер: Тина Гордон Чизм

rating

В ролях: Реджина Холл, Исса Рэй, Марсаи Мартин, Джастин Хартли, Трэйси Эллис Росс, Тони Белл, Мики Дэй, Джейдон Маккрэри, Такер Мик, Талия Тран и др.

Описание: Главная героиня, властный босс компании, однажды просыпается ребенком. Начинаются веселье и шутки, поскольку героине надо провернуть важную сделку.

Качество: BDRip-AVC
Формат: MKV

Видео: 1024x554 (1.85:1), 23,976 fps, x264 ~2 037 kbps avg, 0.150 bit/pixel
Аудио#1: 48 kHz, AC3 Dolby Digital Plus, 3/2 (L,C,R,l,r) + LFE ch, ~384.00 kbps avg | RUS (iTunes)
Аудио#2: 48 kHz, AC3 Dolby Digital Plus, 3/2 (L,C,R,l,r) + LFE ch, ~448.00 kbps avg | ENG
скриншот  скриншот  скриншот  скриншот  скриншот  

Общее
Уникальный идентификатор : 205619462369668690377600905384830219479 (0x9AB0DE3374B6C54E531CB7BF17F0B4D7)
Полное имя : F:OlLanDGroupLittle.2019.BDRip(AVC).OlLanDGroup.mkv
Формат : Matroska
Версия формата : Version 4 / Version 2
Размер файла : 2,18 Гбайт
Продолжительность : 1 ч. 48 м.
Общий поток : 2871 Кбит/сек
Название фильма : Little.2019 #TorpedoUK#
Дата кодирования : UTC 2019-09-02 01:31:46
Программа кодирования : mkvmerge v29.0.0 ('Like It Or Not') 64-bit
Библиотека кодирования : libebml v1.3.6 + libmatroska v1.4.9

Видео
Идентификатор : 1
Формат : AVC
Формат/Информация : Advanced Video Codec
Профиль формата : High@L4.1
Параметр CABAC формата : Да
Параметр ReFrames формата : 10 кадров
Идентификатор кодека : V_MPEG4/ISO/AVC
Продолжительность : 1 ч. 48 м.
Битрейт : 2037 Кбит/сек
Ширина : 1024 пикселя
Высота : 554 пикселя
Соотношение сторон : 1,85:1
Режим частоты кадров : Постоянный
Частота кадров : 23,976 (24000/1001) кадра/сек
Цветовое пространство : YUV
Субдискретизация насыщенности : 4:2:0
Битовая глубина : 8 бит
Тип развёртки : Прогрессивная
Бит/(Пиксели*Кадры) : 0.150
Размер потока : 1,55 Гбайт (71%)
Библиотека кодирования : x264 core 146 r2538 121396c
Настройки программы : cabac=1 / ref=10 / deblock=1:-3:-3 / analyse=0x3:0x113 / me=umh / subme=11 / psy=1 / psy_rd=1.00:0.03 / mixed_ref=1 / me_range=48 / chroma_me=1 / trellis=2 / 8x8dct=1 / cqm=0 / deadzone=21,11 / fast_pskip=1 / chroma_qp_offset=-3 / threads=6 / lookahead_threads=1 / sliced_threads=0 / nr=0 / decimate=1 / interlaced=0 / bluray_compat=0 / constrained_intra=0 / bframes=11 / b_pyramid=2 / b_adapt=2 / b_bias=0 / direct=3 / weightb=1 / open_gop=0 / weightp=2 / keyint=240 / keyint_min=23 / scenecut=40 / intra_refresh=0 / rc_lookahead=40 / rc=2pass / mbtree=0 / bitrate=2037 / ratetol=1.0 / qcomp=0.60 / qpmin=0 / qpmax=69 / qpstep=4 / cplxblur=20.0 / qblur=0.5 / vbv_maxrate=50000 / vbv_bufsize=62500 / nal_hrd=none / filler=0 / ip_ratio=1.40 / pb_ratio=1.30 / aq=1:1.00
Язык : English
Default : Да
Forced : Нет

Аудио #1
Идентификатор : 2
Формат : AC-3
Формат/Информация : Audio Coding 3
Расширение режима : CM (complete main)
Параметр Endianness формата : Big
Идентификатор кодека : A_AC3
Продолжительность : 1 ч. 48 м.
Вид битрейта : Постоянный
Битрейт : 384 Кбит/сек
Каналы : 6 каналов
Расположение каналов : Front: L C R, Side: L R, LFE
Частота : 48,0 КГц
Частота кадров : 31,250 кадров/сек (1536 spf)
Битовая глубина : 16 бит
Метод сжатия : С потерями
Размер потока : 299 Мбайт (13%)
Заголовок : DUB [iTunes]
Язык : Russian
Default : Да
Forced : Нет

Аудио #2
Идентификатор : 3
Формат : AC-3
Формат/Информация : Audio Coding 3
Расширение режима : CM (complete main)
Параметр Endianness формата : Big
Идентификатор кодека : A_AC3
Продолжительность : 1 ч. 48 м.
Вид битрейта : Постоянный
Битрейт : 448 Кбит/сек
Каналы : 6 каналов
Расположение каналов : Front: L C R, Side: L R, LFE
Частота : 48,0 КГц
Частота кадров : 31,250 кадров/сек (1536 spf)
Битовая глубина : 16 бит
Метод сжатия : С потерями
Размер потока : 349 Мбайт (16%)
Заголовок : [Original]
Язык : English
Default : Нет
Forced : Нет

Текст #1
Идентификатор : 4
Формат : UTF-8
Идентификатор кодека : S_TEXT/UTF8
Идентификатор кодека/Информация : UTF-8 Plain Text
Продолжительность : 1 ч. 40 м.
Битрейт : 4 бит/сек
Count of elements : 72
Размер потока : 3,08 Кбайт (0%)
Заголовок : Forced
Язык : Russian
Default : Да
Forced : Нет

Текст #2
Идентификатор : 5
Формат : UTF-8
Идентификатор кодека : S_TEXT/UTF8
Идентификатор кодека/Информация : UTF-8 Plain Text
Продолжительность : 1 ч. 42 м.
Битрейт : 75 бит/сек
Count of elements : 1967
Размер потока : 56,7 Кбайт (0%)
Заголовок : Full
Язык : English
Default : Нет
Forced : Нет

Текст #3
Идентификатор : 6
Формат : UTF-8
Идентификатор кодека : S_TEXT/UTF8
Идентификатор кодека/Информация : UTF-8 Plain Text
Продолжительность : 1 ч. 42 м.
Битрейт : 83 бит/сек
Count of elements : 2172
Размер потока : 62,8 Кбайт (0%)
Заголовок : SDH
Язык : English
Default : Нет
Forced : Нет

Меню
00:00:00.000 : :Глава 01
00:03:25.788 : :Глава 02
00:09:27.692 : :Глава 03
00:15:13.913 : :Глава 04
00:23:52.180 : :Глава 05
00:28:11.064 : :Глава 06
00:32:42.377 : :Глава 07
00:38:15.960 : :Глава 08
00:41:50.966 : :Глава 09
00:46:22.905 : :Глава 10
00:53:01.344 : :Глава 11
00:58:11.321 : :Глава 12
01:03:52.203 : :Глава 13
01:08:46.580 : :Глава 14
01:12:19.376 : :Глава 15
01:20:45.215 : :Глава 16
01:29:21.356 : :Глава 17
01:34:23.949 : :Глава 18
01:39:19.244 : :Глава 19
01:43:11.476 : :Глава 20

pb.wtf



Скачать Мелкая через торрент https://i87.fastpic.ru/big/2019/0902/61/094824fd7d31405426ad322247665661.jpg Скачать фильм Мелкая через торрент бесплантно в хорошем качестве Описание: Главная героиня, властный босс компании, однажды просыпается ребенком. Начинаются веселье и шутки, поскольку героине надо ... 10 10 5
Торрент: Зарегистрирован [2019-09-02 02:04] · скачан: 151 раз
Статус: √ проверено
Размер: 2.18 GB
Как cкачать? Как скачать Мелкая через торрент | qTorrent

% Раздел Тема Автор DL S | L
Фильмы 2019 [DVDrip, WEB-DLRip, HDrip] (DUB, MVO) [ 1.45 GB ] Мелкая / Little [2019 BDRip] bober100 Скачать
3 | 0
Фильмы [HD 720p, 1080p] (Хороший звук DUB, MVO) [ 4.34 GB ] Мелкая / Little [2019 BDRip 720p] bober100 Скачать
2 | 0
Фильмы [HD 720p, 1080p] (Хороший звук DUB, MVO) [ 7.63 GB ] Мелкая / Little [2019 BDRip 1080p] bober100 Скачать
2 | 0
Гонзо [ 1.05 GB ] Мелкие Штучки 2 / Little Things 2 [2014 Gonzo Petite All Sex. DVDRip Оригинал] Pir@tya2010 Скачать
1 | 0
Гонзо [ 904 MB ] Милые Мелкие Подростки / Pretty Little Teens [2014 All Sex Teens. DVDRip Оригинал] Pir@tya2010 Скачать
1 | 0
Гонзо [ 1.38 GB ] Милые мелкие штучки 2 / Pretty Little Things 2 [2013 All Sex Oral Anal Gonzo Legal Teen WEB-DLRip Оригинал] sheker187 Скачать
1 | 0
Гонзо [ 1.07 GB ] Милые Мелкие Штучки / Pretty Little Things [2013 All Sex Legal Teen. DVDRip Оригинал] Pir@tya2010 Скачать
1 | 0

28-11-2019 20:33  

Отключить всю рекламу на сайте

    Дорогой пользователь! Огромная просьба, поблагодарите релизера, оцените раздачу и оставьте свои комментарий, если Вы скачали Мелкая через торрент бесплатно! Внесите свою лепту в развитие PiratBit!
    Комментировать посты могут только пользователи прошедшие не сложную регистрацию
    Показать сообщения:    

    Мелкая через торрент
    Скачать бесплатно Мелкая
    Мелкая скачать торрент
    Мелкая смотреть онлайн
    Cкачать фильм Мелкая бесплатно
    Мелкая скачать торрент в хорошем качестве
    Мелкая смотреть онлайн бесплатно в хорошем качестве


    Вы не можете начинать темы
    Вы не можете отвечать на сообщения
    Вы не можете редактировать свои сообщения
    Вы не можете удалять свои сообщения
    Вы не можете голосовать в опросах
    Вы не можете прикреплять файлы к сообщениям
    Вы можете скачивать файлы