Всегда рабочее зеркало без VPN и Proxy просто перед .vidak.icu напиши любое слово или цифру, Пример http://c7rc.vidak.icu

MVO

2 сезон

2 сезон

1

1 сезон

iTunes

2 сезон

13

1 сезон

Распродажа

pack

Рекомендуем

Пиратка

30

ВАЖНО

RePack

MK11

RePack

jed

RePack

fifa19

RePack

RDR2

RePack

NEED FOR SPEED™ PAYBACK

Кинопоиск HD

6 сезон

 Острые козырьки 6 сезон

Все сериалы

все сериалы на PB.wtf

RePack

FAR CRY 5

Anonymous, нам критически не хватает 5601 руб. на оплату серверов и переферии за Апрель, помоги нам пожалуйста, вся надежда только на тебя. В благодарность мы отключим тебе всю рекламу на сайте!

×
  
Magnet ссылка

Джонни Мнемоник / Johnny Mnemonic (Роберт Лонго) [1995 г., фантастика, боевик, BDRip 1080p] 2xMVO, DVO, AVO (Визгунов) pb.wtf

Джонни Мнемоник через торрент pb.wtf

Размер: 8.7 GB | Добавлен: 2 года 8 мес. назад | Торрент скачан:144 раза
Смотреть онлайн Джонни Мнемоник | Скачать    Ребята, помогите собрать деньги на оплату серверов!!!

02-09-2019 12:16 Джонни Мнемоник Скачать торрент  

Джонни Мнемоник / Johnny Mnemonic
Год выпуска: 1995

Страна: Канада, США

Жанр: Фантастика, боевик

Продолжительность: 01:36:40

Перевод: Профессиональный (многоголосый), профессиональный (двухголосый), авторский (одноголосый)

Субтитры: Русские, английские

Режиссер: Роберт Лонго

rating

В ролях: Киану Ривз, Дина Мейер, Айс-Ти, Такеши Китано, Дэнис Акаяма, Дольф Лундгрен, Генри Роллинз, Барбара Зукова, Удо Кир, Трейси Туид, Фалконер Абрахам, Дон Фрэнкс, Диего Чэмберс, Шерри Миллер, Артур Энг, Вон Флорес, Виктория Тенгелис, Уоррен Сулатики, Селина Ву, Джин Макк, Джеми Элман, Саймон Синн, Кэйтлин Кармоди, Эрин Кармоди, Дуглас О’Киффи, Марлоу Велла, Ховард Шафер, Пол Брогрен, Арти Самбасиван, Майкл А. Миранда, Койот Шиверс, Линн Эдамс, Майкл Ширер, Сьюзэн Цагкарис, Кристофер Комри, Робин Броски
Описание: В насквозь кибернетизированном будущем самый ценный товар — информация, доставляемая курьерами в самом надежном месте — в их собственном мозгу. Для того, чтобы преуспеть в этом бизнесе, Джонни «стёр» воспоминания детства и расширил память сверхсовременных компьютерных приспособлений. Но и этого оказалось мало для информации, которую он взялся доставить. Если её вовремя не сгрузить, то Джонни погибнет. Ставки велики, и информацию из головы (можно и с головой, но без Джонни) желает получить вездесущая японская мафия, подключающая к столь тонкому делу проповедника…
Качество: BDRip 1080p
Формат: MKV
Видео: MPEG-4 AVC, 10400 Кбит/с, 1920x1080, 23.976 кадр/с
Аудио#1: Русский, AC3, 6 ch, 448 Кбит/с - MVO
Аудио#2: Русский, AC3, 6 ch, 448 Кбит/с - MVO
Аудио#3: Русский, AC3, 6 ch, 448 Кбит/с - DVO
Аудио#4: Русский, AC3, 6 ch, 384 Кбит/с - AVO (Визгунов)
Аудио#5: Английский, DTS, 6 ch, 755 Кбит/с
Видео
Идентификатор : 1
Формат : AVC
Формат/Информация : Advanced Video Codec
Профиль формата : High@L4.1
Настройки формата : CABAC / 3 Ref Frames
Параметр CABAC формата : Да
Параметр RefFrames формата : 3 кадра
Режим смешивания : Header stripping
Идентификатор кодека : V_MPEG4/ISO/AVC
Продолжительность : 1 ч. 36 м.
Битрейт : 10,4 Мбит/сек
Ширина : 1920 пикселей
Высота : 1080 пикселей
Соотношение сторон : 16:9
Режим частоты кадров : Постоянный
Частота кадров : 23,976 кадра/сек
Цветовое пространство : YUV
Субдискретизация насыщенности : 4:2:0
Битовая глубина : 8 бит
Тип развёртки : Прогрессивная
Бит/(Пиксели*Кадры) : 0.209
Размер потока : 6,85 Гбайт (79%)
Заголовок : Johnny Mnemonic. 1995. BDRip (1080p)
Библиотека кодирования : x264 core 65 r1069M ed32ad2
Настройки программы : cabac=1 / ref=3 / deblock=1:0:0 / analyse=0x3:0x113 / me=umh / subme=7 / psy_rd=1.0:0.0 / mixed_ref=1 / me_range=16 / chroma_me=1 / trellis=1 / 8x8dct=1 / cqm=0 / deadzone=21,11 / chroma_qp_offset=-2 / threads=6 / nr=0 / decimate=1 / mbaff=0 / bframes=3 / b_pyramid=1 / b_adapt=1 / b_bias=0 / direct=3 / wpredb=1 / keyint=240 / keyint_min=24 / scenecut=40(pre) / rc=2pass / bitrate=10410 / ratetol=1.0 / qcomp=0.60 / qpmin=10 / qpmax=51 / qpstep=4 / cplxblur=20.0 / qblur=0.5 / vbv_maxrate=30000 / vbv_bufsize=30000 / ip_ratio=1.40 / pb_ratio=1.30 / aq=1:1.00
Язык : English
Default : Да
Forced : Да

Аудио #1
Идентификатор : 2
Формат : AC-3
Формат/Информация : Audio Coding 3
Коммерческое название : Dolby Digital
Режим смешивания : Header stripping
Идентификатор кодека : A_AC3
Продолжительность : 1 ч. 36 м.
Вид битрейта : Постоянный
Битрейт : 448 Кбит/сек
Каналы : 6 каналов
Channel layout : L R C LFE Ls Rs
Частота : 48,0 КГц
Частота кадров : 31,250 кадров/сек (1536 SPF)
Битовая глубина : 16 бит
Метод сжатия : С потерями
Размер потока : 310 Мбайт (3%)
Заголовок : MVO (AC3 5.1 448 kbps)
Язык : Russian
ServiceKind/String : Complete Main
Default : Да
Forced : Нет

Аудио #2
Идентификатор : 3
Формат : AC-3
Формат/Информация : Audio Coding 3
Коммерческое название : Dolby Digital
Режим смешивания : Header stripping
Идентификатор кодека : A_AC3
Продолжительность : 1 ч. 36 м.
Вид битрейта : Постоянный
Битрейт : 448 Кбит/сек
Каналы : 6 каналов
Channel layout : L R C LFE Ls Rs
Частота : 48,0 КГц
Частота кадров : 31,250 кадров/сек (1536 SPF)
Битовая глубина : 16 бит
Метод сжатия : С потерями
Размер потока : 310 Мбайт (3%)
Заголовок : MVO (Twister) (AC3 5.1 448 kbps)
Язык : Russian
ServiceKind/String : Complete Main
Default : Нет
Forced : Нет

Аудио #3
Идентификатор : 4
Формат : AC-3
Формат/Информация : Audio Coding 3
Коммерческое название : Dolby Digital
Режим смешивания : Header stripping
Идентификатор кодека : A_AC3
Продолжительность : 1 ч. 36 м.
Вид битрейта : Постоянный
Битрейт : 448 Кбит/сек
Каналы : 6 каналов
Channel layout : L R C LFE Ls Rs
Частота : 48,0 КГц
Частота кадров : 31,250 кадров/сек (1536 SPF)
Битовая глубина : 16 бит
Метод сжатия : С потерями
Размер потока : 310 Мбайт (3%)
Заголовок : DVO (EA Cinema) (AC3 5.1 448 kbps)
Язык : Russian
ServiceKind/String : Complete Main
Default : Нет
Forced : Нет

Аудио #4
Идентификатор : 5
Формат : AC-3
Формат/Информация : Audio Coding 3
Коммерческое название : Dolby Digital
Режим смешивания : Header stripping
Идентификатор кодека : A_AC3
Продолжительность : 1 ч. 36 м.
Вид битрейта : Постоянный
Битрейт : 384 Кбит/сек
Каналы : 6 каналов
Channel layout : L R C LFE Ls Rs
Частота : 48,0 КГц
Частота кадров : 31,250 кадров/сек (1536 SPF)
Битовая глубина : 16 бит
Метод сжатия : С потерями
Размер потока : 266 Мбайт (3%)
Заголовок : AVO (Vizgunov) (AC3 5.1 384 kbps)
Язык : Russian
ServiceKind/String : Complete Main
Default : Нет
Forced : Нет

Аудио #5
Идентификатор : 6
Формат : DTS
Формат/Информация : Digital Theater Systems
Режим смешивания : Header stripping
Идентификатор кодека : A_DTS
Продолжительность : 1 ч. 36 м.
Вид битрейта : Постоянный
Битрейт : 755 Кбит/сек
Каналы : 6 каналов
Channel layout : C L R Ls Rs LFE
Частота : 48,0 КГц
Частота кадров : 93,750 кадра/сек (512 SPF)
Битовая глубина : 24 бит
Метод сжатия : С потерями
Размер потока : 522 Мбайт (6%)
Заголовок : DTS 5.1 755 kbps
Язык : English
Default : Нет
Forced : Нет

Текст #1
Идентификатор : 7
Формат : UTF-8
Идентификатор кодека : S_TEXT/UTF8
Идентификатор кодека/Информация : UTF-8 Plain Text
Заголовок : ver.1
Язык : Russian
Default : Да
Forced : Да

Текст #2
Идентификатор : 8
Формат : UTF-8
Идентификатор кодека : S_TEXT/UTF8
Идентификатор кодека/Информация : UTF-8 Plain Text
Заголовок : ver.2
Язык : Russian
Default : Нет
Forced : Нет

Текст #3
Идентификатор : 9
Формат : UTF-8
Идентификатор кодека : S_TEXT/UTF8
Идентификатор кодека/Информация : UTF-8 Plain Text
Заголовок : ver.3
Язык : Russian
Default : Нет
Forced : Нет

Текст #4
Идентификатор : 10
Формат : UTF-8
Идентификатор кодека : S_TEXT/UTF8
Идентификатор кодека/Информация : UTF-8 Plain Text
Язык : English
Default : Нет
Forced : Нет

Меню
00:00:00.000 : en:1
00:10:00.000 : en:2
00:20:00.000 : en:3
00:30:00.000 : en:4
00:40:00.000 : en:5
00:50:00.000 : en:6
01:00:00.000 : en:7
01:10:00.000 : en:8
01:20:00.000 : en:9
01:30:00.000 : en:10

скриншот   скриншот   скриншот   скриншот   скриншот  

pb.wtf



Скачать Джонни Мнемоник через торрент https://pic1.kartinco.top/images/12/nrft9.jpg Скачать, смотреть онлайн Джонни Мнемоник бесплантно в хорошем качестве Описание: В насквозь кибернетизированном будущем самый ценный товар — информация, доставляемая курьерами в самом надежном месте — в их ... 10 10 4
Торрент: Зарегистрирован [2019-09-02 12:16] · скачан: 144 раз
Статус: T временная
Размер: 8.7 GB
Как cкачать? Как скачать Джонни Мнемоник через торрент | UTorrent

% Раздел Тема Автор DL S | L
Фильмы (HD 720p, 1080p) (48-60 fps) [ 3.01 GB ] Джонни Мнемоник / Johnny Mnemonic [1995 BDRip 720p / 60 FPS MVO ] alien2015 Скачать
1 | 0
Фильмы (Blu-ray, BD-Remux, HDDVD) [ 25.57 GB ] Джонни Мнемоник / Johnny Mnemonic [1995 BD Remux 1080p] [JPN Transfer] DVO+MVO+AVO bober100 Скачать
1 | 0
Фильмы с авторской озвучкой [ 1.46 GB ] Джонни Мнемоник / Johnny Mnemonic [1995 киберпанк BDRip] [AVO] killermax2013 Скачать
1 | 0
Фильмы с авторской озвучкой [ 1.46 GB ] Джонни Мнемоник / Johnny Mnemonic [1995 киберпанк HDRip] [AVO] killermax2013 Скачать
1 | 0
Фильмы до 2000 г. [ 1.46 GB ] Джонни Мнемоник / Johnny Mnemonic [1995 BDRip] chaga2009 Скачать
1 | 0

28-11-2019 20:33  

Отключить всю рекламу на сайте

03-09-2019 13:56 Джонни Мнемоник Скачать торрент  

Ох спасибо, давно хотел переглядеть! pb.wtf



    Дорогой пользователь! Огромная просьба, поблагодарите релизера, оцените раздачу и оставьте свои комментарий, если Вы скачали Джонни Мнемоник через торрент бесплатно!
    Комментировать посты могут только пользователи прошедшие не сложную регистрацию
    Показать сообщения:    

    Джонни Мнемоник через торрент
    Скачать бесплатно Джонни Мнемоник
    Джонни Мнемоник скачать торрент
    Джонни Мнемоник смотреть онлайн
    Cкачать фильм Джонни Мнемоник бесплатно
    Джонни Мнемоник скачать торрент в хорошем качестве
    Джонни Мнемоник смотреть онлайн бесплатно в хорошем качестве


    Вы не можете начинать темы
    Вы не можете отвечать на сообщения
    Вы не можете редактировать свои сообщения
    Вы не можете удалять свои сообщения
    Вы не можете голосовать в опросах
    Вы не можете прикреплять файлы к сообщениям
    Вы можете скачивать файлы