2 сезон

iTunes

MVO

1

2 сезон

iTunes

iTunes

1 сезон

RePack

30

Новинка

ВАЖНО

ИГРА 18+

pack

RePack

MK11
pack

Легкие деньги

RePack

jed

RePack

fifa19

RePack

RDR2

RePack

NEED FOR SPEED™ PAYBACK

4 сезон

9 сезон

Бесстыжие 9 сезон

Все сериалы

все сериалы на PB.wtf

RePack

FAR CRY 5

Anonymous, добрый вечер, мы не успеваем собрать деньги на оплату серверов за декабрь и январь, помогите нам пожалуйста в это трудное время. В качестве благодарности мы отключим Вам всю рекламу на сайте (укажите свой ник в строку Ваше имя)!

×
  
Magnet ссылка

Псы-воины / Dog Soldiers (Нил Маршалл) [2001, ужасы, BDRip - HEVC 1080p 10 bit 60 FPS] Профессиональный [одноголосый] pb.wtf

Псы-воины через торрент pb.wtf

Размер: 4.78 GB | Добавлен: 1 год 4 мес. назад | Торрент скачан:70 раз
Скачать  

02-09-2019 15:36 Псы-воины Скачать торрент  

Псы-воины / Dog Soldiers
««Six soldiers. Full moon. No chance»»

Год выпуска: 2001
Страна: Великобритания,
Жанр: ужасы,
Продолжительность: 01:45:02
Перевод: Профессиональный [одноголосый]
Субтитры: русские (Full (по Гоблину)).
Режиссер: Нил Маршалл
В ролях:

Шон Пертуи (Sgt. Harry G. Wells), Кевин МакКидд (Pvt. Cooper), Эмма Клисби (Megan), Лиам Каннингэм (Capt. Ryan), Томас Локъер (Cpl. Bruce Campbell), Даррен Морфитт («Spoon» Witherspoon), Крис Робсон (Pvt. Joe Kirkley), Лесли Симпсон (Pvt. Terry Milburn), Тина Ландини (Camper), Крэйг Конуэй (Camper), Вильрикке Асер (Sam the Dog), Брин Уолтерс (Werewolf)
Описание:
Отряд британских солдат под командованием сержанта Уэллса отправился на боевое задание в дикие леса горной Шотландии. Но то, что началось как обычные армейские учения, превратилось в настоящий кошмар. Прибыв на секретную военную базу, солдаты обнаружили истекающего кровью капитана Райана и растерзанные останки его подчиненных...
Мировая премьера: 22 марта 2002

Качество: BDRip 1080p Rip by DD2D3
Исходник: BDRemux
Формат: MKV
Видео: V_MPEGH/ISO/HEVC, 1920x1080 (16:9), 5000 kbps, 59,940 fps, 0,040 bpp
Аудио: русский / DTS / 5.1 / 48 kHz / 1509 kbps / 24 bit ||
Навигация по главам: есть


Общее
Уникальный идентификатор : 194514697011980980881908358112045692012 (0x92562AFF6B29027CB07E33E5BCF7F46C)
Полное имя : D:\Псы Войны - Dog soldiers (2002) BDRip - HEVC 1080p 10 bit 60 FPS.mkv
Формат : Matroska
Версия формата : Version 4
Размер файла : 4,78 Гбайт
Продолжительность : 1 ч. 45 м.
Общий поток : 6514 Кбит/сек
Название фильма : Rip by DD2D3
Дата кодирования : UTC 2019-09-02 15:06:24
Программа кодирования : mkvmerge v10.0.0 ('To Drown In You') 32bit
Библиотека кодирования : libebml v1.3.4 + libmatroska v1.4.5
Attachments : poster

Видео
Идентификатор : 1
Формат : HEVC
Формат/Информация : High Efficiency Video Coding
Профиль формата : Main 10@L4.1@Main
Идентификатор кодека : V_MPEGH/ISO/HEVC
Продолжительность : 1 ч. 45 м.
Битрейт : 5000 Кбит/сек
Ширина : 1920 пикселей
Высота : 1080 пикселей
Соотношение сторон : 16:9
Режим частоты кадров : Постоянный
Частота кадров : 59,940 (60000/1001) кадров/сек
Цветовое пространство : YUV
Субдискретизация насыщенности : 4:2:0
Битовая глубина : 10 бит
Бит/(Пиксели*Кадры) : 0.040
Размер потока : 3,67 Гбайт (77%)
Библиотека кодирования : x265 2.3+33-0b7d54dbb71a87a0:[Windows][MSVC 1800][64 bit] 10bit: KG7x [x265.ru]
Настройки программы : cpuid=1173503 / frame-threads=2 / numa-pools=4 / wpp / no-pmode / no-pme / no-psnr / no-ssim / log-level=2 / input-csp=1 / input-res=1920x1080 / interlace=0 / total-frames=377793 / level-idc=41 / high-tier=1 / uhd-bd=0 / ref=3 / no-allow-non-conformance / no-repeat-headers / annexb / no-aud / no-hrd / info / hash=0 / no-temporal-layers / open-gop / min-keyint=25 / keyint=250 / bframes=4 / b-adapt=2 / b-pyramid / bframe-bias=0 / rc-lookahead=20 / lookahead-slices=6 / scenecut=40 / no-intra-refresh / ctu=64 / min-cu-size=8 / no-rect / no-amp / max-tu-size=32 / tu-inter-depth=1 / tu-intra-depth=1 / limit-tu=0 / rdoq-level=0 / dynamic-rd=0.00 / no-ssim-rd / signhide / no-tskip / nr-intra=0 / nr-inter=0 / no-constrained-intra / strong-intra-smoothing / max-merge=2 / limit-refs=3 / no-limit-modes / me=1 / subme=2 / merange=57 / temporal-mvp / weightp / no-weightb / no-analyze-src-pics / deblock=0:0 / no-sao / no-sao-non-deblock / rd=3 / no-early-skip / no-rskip / no-fast-intra / no-tskip-fast / no-cu-lossless / no-b-intra / rdpenalty=0 / psy-rd=4.00 / psy-rdoq=0.00 / no-rd-refine / analysis-mode=0 / no-lossless / cbqpoffs=0 / crqpoffs=0 / rc=abr / bitrate=5000 / qcomp=0.60 / qpstep=1 / stats-write=0 / stats-read=2 / cplxblur=20.0 / qblur=0.5 / ipratio=1.10 / pbratio=1.00 / aq-mode=0 / aq-strength=0.00 / no-cutree / zone-count=0 / no-strict-cbr / qg-size=64 / rc-grain / qpmax=69 / qpmin=0 / sar=1 / overscan=0 / videoformat=5 / range=0 / colorprim=2 / transfer=2 / colormatrix=2 / chromaloc=0 / display-window=0 / max-cll=0,0 / min-luma=0 / max-luma=1023 / log2-max-poc-lsb=8 / vui-timing-info / vui-hrd-info / slices=1 / opt-qp-pps / opt-ref-list-length-pps / no-multi-pass-opt-rps / scenecut-bias=0.05 / no-opt-cu-delta-qp / no-aq-motion / no-hdr / no-hdr-opt / refine-level=5 / no-limit-sao
Default : Да
Forced : Нет

Аудио
Идентификатор : 2
Формат : DTS
Формат/Информация : Digital Theater Systems
Идентификатор кодека : A_DTS
Продолжительность : 1 ч. 45 м.
Вид битрейта : Постоянный
Битрейт : 1510 Кбит/сек
Каналы : 6 каналов
Channel layout : C L R Ls Rs LFE
Частота : 48,0 КГц
Частота кадров : 93,750 кадра/сек (512 SPF)
Битовая глубина : 24 бит
Метод сжатия : С потерями
Размер потока : 1,11 Гбайт (23%)
Заголовок : VO (Дмитрий Пучков)
Язык : Russian
Default : Нет
Forced : Нет

Текст
Идентификатор : 3
Формат : UTF-8
Идентификатор кодека : S_TEXT/UTF8
Идентификатор кодека/Информация : UTF-8 Plain Text
Продолжительность : 1 ч. 42 м.
Битрейт : 80 бит/сек
ElementCount : 1094
Размер потока : 60,4 Кбайт (0%)
Заголовок : Full (по Гоблину)
Язык : Russian
Default : Нет
Forced : Нет

Меню
00:00:00.000 : en:Main Titles
00:11:35.695 : en:North Wales
00:19:21.785 : en:Firing Blanks
00:28:27.330 : en:Unlucky Eddie
00:37:58.276 : en:Full Moon
00:47:03.821 : en:Code 64
00:56:52.033 : en:Double Time
01:06:50.965 : en:Reload
01:13:42.418 : en:Car Trouble
01:23:10.610 : en:Nobody Home
01:35:14.333 : en:Shoot
01:41:34.088 : en:Moron
01:45:01.920 : en:01:45:01.920
скриншот  скриншот  скриншот  скриншот  

© Оформление by DD2D3 pb.wtf



Скачать Псы-воины через торрент https://funkyimg.com/i/2WEkq.jpg Скачать фильм Псы-воины через торрент бесплантно в хорошем качестве Описание: Отряд британских солдат под командованием сержанта Уэллса отправился на боевое задание в дикие леса горной Шотландии. Но то, что ... 10 10 2
Торрент: Зарегистрирован [2019-09-02 15:36] · скачан: 70 раз
Статус: √ проверено
Размер: 4.78 GB
Как cкачать? Как скачать Псы-воины через торрент | UTorrent

% Раздел Тема Автор DL S | L
Ultra HD (UHD: 2K, 4K, 8K) — видео сверхвысокой чёткости [ 41.48 GB ] Псы-воины / Dog Soldiers [2001 UHD BDRemux 2160p] [SDR] 2xMVO + 2xDVO + 2xAVO sheker187 Скачать
1 | 0
Фильмы [HD 720p, 1080p] (Хороший звук DUB, MVO) [ 15.88 GB ] Псы-воины / Dog Soldiers [2002 BDRip 1080p] MVO DVO AVO msltel Скачать
1 | 0
Фильмы [HD 720p, 1080p] (Хороший звук DUB, MVO) [ 9.3 GB ] Псы-воины / Dog Soldiers [2002 BDRip 720p] MVO DVO AVO msltel Скачать
1 | 0
Фильмы 2001-2005 [ 1.46 GB ] Псы-воины / Dog Soldiers [2002 HDRip] MVO + DVO -=Cherry=- Скачать
1 | 0

28-11-2019 20:33  

Отключить всю рекламу на сайте

02-09-2019 15:51 Псы-воины Скачать торрент  

эх, жаль что вторая часть так и не вышла в свет._.pb.wtf



02-09-2019 16:25 Псы-воины Скачать торрент  

Годное кино что ли?Arron_H1De,pb.wtf



03-09-2019 13:59 Псы-воины Скачать торрент  

Беллик писал(а):

Годное кино что ли?Arron_H1De,

мне иногда тоже шлак нравится.pb.wtf



04-09-2019 16:38 Псы-воины Скачать торрент  

Беллик писал(а):

Годное кино что ли?Arron_H1De,

Трэш лютый, но лично меня что то зацепило. Пересматривал за 10 лет раз 15)pb.wtf



22-06-2020 21:35 Псы-воины Скачать торрент  

Добротный фильмец, а в Гоблине самый сок! Размер и качество зачет, хоть и качал не здесь "_"pb.wtf



05-07-2020 16:41 Псы-воины Скачать торрент  

Ares_1 писал(а):

Добротный фильмец, а в Гоблине самый сок! Размер и качество зачет, хоть и качал не здесь "_"

Что? Гоблин такое не переводит!pb.wtf



15-07-2020 13:21 Псы-воины Скачать торрент  

БОГАТЫРЬ писал(а):

Ares_1 писал(а):

Добротный фильмец, а в Гоблине самый сок! Размер и качество зачет, хоть и качал не здесь "_"

Что? Гоблин такое не переводит!

Прежде чем писать, ознакомьтесь с MI! И главное, посмотрите фильм где озвучка, Дмитрий Пучков (Гоблин)!!!pb.wtf



    Дорогой пользователь! Огромная просьба, поблагодарите релизера, оцените раздачу и оставьте свои комментарий, если Вы скачали Псы-воины через торрент бесплатно! Внесите свою лепту в развитие PiratBit!
    Комментировать посты могут только пользователи прошедшие не сложную регистрацию
    Показать сообщения:    

    Псы-воины через торрент
    Скачать бесплатно Псы-воины
    Псы-воины скачать торрент
    Псы-воины смотреть онлайн
    Cкачать фильм Псы-воины бесплатно
    Псы-воины скачать торрент в хорошем качестве
    Псы-воины смотреть онлайн бесплатно в хорошем качестве


    Вы не можете начинать темы
    Вы не можете отвечать на сообщения
    Вы не можете редактировать свои сообщения
    Вы не можете удалять свои сообщения
    Вы не можете голосовать в опросах
    Вы не можете прикреплять файлы к сообщениям
    Вы можете скачивать файлы